<?xml version="1.0" standalone="no"?>
<!DOCTYPE svg PUBLIC "-//W3C//DTD SVG 1.1//EN" "http://www.w3.org/Graphics/SVG/1.1/DTD/svg11.dtd" >
<svg xmlns="http://www.w3.org/2000/svg" xmlns:xlink="http://www.w3.org/1999/xlink" version="1.1">
<metadata>
Created by FontForge 20170731 at Sun Apr 18 14:27:11 2004
 By ,,,
Copyright (c) Laurenz Brunner. www.lineto.com, 2004. All rights reserved.
</metadata>
<defs>
<font id="Akkurat" horiz-adv-x="560" >
  <font-face 
    font-family="Akkurat"
    font-weight="400"
    font-stretch="normal"
    units-per-em="1000"
    panose-1="2 0 5 3 4 0 0 2 0 4"
    ascent="800"
    descent="-200"
    x-height="506"
    cap-height="709"
    bbox="-15 -289 1125 935"
    underline-thickness="0"
    underline-position="0"
    unicode-range="U+0020-FB02"
  />
<missing-glyph horiz-adv-x="588" 
d="M88 698h412v-698h-412v698zM425 74v549h-262v-549h262z" />
    <glyph glyph-name=".notdef" horiz-adv-x="588" 
d="M88 698h412v-698h-412v698zM425 74v549h-262v-549h262z" />
    <glyph glyph-name=".null" horiz-adv-x="0" 
 />
    <glyph glyph-name="nonmarkingreturn" horiz-adv-x="230" 
 />
    <glyph glyph-name="space" unicode=" " horiz-adv-x="230" 
 />
    <glyph glyph-name="space" unicode="&#xa0;" horiz-adv-x="230" 
 />
    <glyph glyph-name="exclam" unicode="!" horiz-adv-x="331" 
d="M211 215h-58l-23 270v224h102v-224zM130 0v109h106v-109h-106z" />
    <glyph glyph-name="quotedbl" unicode="&#x22;" horiz-adv-x="444" 
d="M333 433h-53l-21 153v123h95v-123zM164 433h-53l-21 153v123h95v-123z" />
    <glyph glyph-name="numbersign" unicode="#" horiz-adv-x="752" 
d="M546 428l-22 -161h125v-77h-136l-26 -189h-78l26 189h-153l-27 -189h-78l26 189h-128v77h139l22 161h-128v78h139l26 189h78l-26 -189h153l27 189h78l-26 -189h125v-78h-136zM314 428l-22 -161h153l23 161h-154z" />
    <glyph glyph-name="dollar" unicode="$" 
d="M536 204q0 -43 -16.5 -76.5t-41.5 -58.5q-31 -30 -72 -46.5t-88 -21.5v-91h-58v91q-96 8 -159 65q-33 30 -52 71.5t-19 90.5h88q0 -31 12.5 -59t34.5 -48q20 -18 43.5 -28t51.5 -14v243q-9 2 -18.5 3t-18.5 2q-37 5 -69 19t-55.5 36.5t-37 54t-13.5 70.5q0 38 16 73
t43 61q33 32 71 47.5t82 19.5v92h58v-93q42 -5 78 -20.5t65 -43.5q31 -30 47.5 -65.5t18.5 -79.5h-89q-3 56 -36 90q-16 17 -36.5 27.5t-47.5 14.5v-228l30 -4q41 -5 75 -20t59.5 -39t39.5 -57.5t14 -77.5zM260 631q-28 -3 -52 -13t-44 -31q-28 -31 -28 -78q0 -45 27 -68.5
t68 -28.5l29 -4v223zM448 202q0 49 -31.5 77t-82.5 34l-16 2v-236q29 3 52 12.5t42 27.5q16 15 26 35t10 48z" />
    <glyph glyph-name="percent" unicode="%" horiz-adv-x="919" 
d="M854 178q0 -35 -7 -65t-24 -56q-20 -29 -52 -49.5t-80 -20.5t-80 20.5t-52 49.5q-17 26 -24 56t-7 65t7 65.5t24 56.5q20 29 52 49.5t80 20.5t80 -20.5t52 -49.5q17 -26 24 -56.5t7 -65.5zM230 -21l-54 41l515 704l55 -39zM386 531q0 -35 -7 -65t-24 -56
q-20 -29 -52 -49.5t-80 -20.5t-80 20.5t-52 49.5q-17 26 -24 56t-7 65t7 65.5t24 56.5q20 29 52 49.5t80 20.5t80 -20.5t52 -49.5q17 -26 24 -56.5t7 -65.5zM777 178q0 31 -6 57.5t-23 43.5q-10 11 -23 17.5t-34 6.5t-34.5 -6.5t-23.5 -17.5q-17 -17 -23 -43.5t-6 -57.5
t6 -57t23 -43q10 -11 23.5 -17.5t34.5 -6.5t34 6.5t23 17.5q17 17 23 43t6 57zM309 531q0 31 -6 57.5t-23 43.5q-10 11 -23 17.5t-34 6.5t-34.5 -6.5t-23.5 -17.5q-17 -17 -23 -43.5t-6 -57.5t6 -57t23 -43q10 -11 23.5 -17.5t34.5 -6.5t34 6.5t23 17.5q17 17 23 43t6 57z
" />
    <glyph glyph-name="ampersand" unicode="&#x26;" horiz-adv-x="737" 
d="M602 332q0 -24 -3 -51.5t-9 -54t-15.5 -50t-21.5 -41.5l121 -135h-108l-61 69q-38 -43 -91.5 -62.5t-110.5 -19.5q-46 0 -86.5 14t-70.5 40.5t-47.5 64.5t-17.5 86q0 56 26.5 102t73.5 75q19 13 35 22q-17 19 -32.5 37t-27 37.5t-18 41.5t-6.5 50q0 37 13.5 67.5t37.5 52
t56.5 33.5t71.5 12t72.5 -11.5t57.5 -33.5t37.5 -53t13.5 -70q0 -51 -23.5 -91t-67.5 -66q-13 -8 -25.5 -16t-25.5 -16l147 -166q11 19 16 45.5t7 54.5t2 56v50h153v-73h-73zM409 553q0 45 -26 71t-74 26q-42 0 -68 -25.5t-26 -66.5q0 -21 7.5 -39.5t19.5 -35t26.5 -31
t27.5 -29.5q21 12 41.5 23t36 25.5t25.5 34t10 47.5zM268 334q-11 -7 -20.5 -13t-20.5 -13q-29 -20 -45 -49.5t-16 -64.5q0 -28 10 -51.5t28 -40.5t42 -26.5t52 -9.5q47 0 85.5 13t67.5 51z" />
    <glyph glyph-name="quotesingle" unicode="'" horiz-adv-x="265" 
d="M159 433h-53l-21 153v123h95v-123z" />
    <glyph glyph-name="parenleft" unicode="(" horiz-adv-x="303" 
d="M235 -142q-41 46 -72.5 101.5t-52.5 116t-32 123t-11 123.5t11 123.5t32 123t52.5 116t72.5 101.5l53 -37q-72 -95 -109.5 -199t-37.5 -228t37.5 -228t109.5 -199z" />
    <glyph glyph-name="parenright" unicode=")" horiz-adv-x="303" 
d="M236 322q0 -61 -11 -123.5t-32 -123t-52.5 -116t-72.5 -101.5l-53 37q72 95 109.5 199t37.5 228t-37.5 228t-109.5 199l53 37q41 -46 72.5 -101.5t52.5 -116t32 -123t11 -123.5z" />
    <glyph glyph-name="asterisk" unicode="*" horiz-adv-x="533" 
d="M319 471l104 -129l-67 -48l-90 139l-89 -139l-67 50l104 127l-159 41l26 79l153 -60l-8 165h83l-10 -165l154 60l25 -79z" />
    <glyph glyph-name="plus" unicode="+" horiz-adv-x="681" 
d="M375 268v-263h-70v263h-240v69h240v247h70v-247h241v-69h-241z" />
    <glyph glyph-name="comma" unicode="," horiz-adv-x="294" 
d="M209 -1q0 -56 -21.5 -95t-76.5 -62l-26 47q39 17 51.5 42t12.5 68h-62v117h122v-117v0z" />
    <glyph glyph-name="hyphen" unicode="-" horiz-adv-x="437" 
d="M70 262v79h297v-79h-297z" />
    <glyph glyph-name="period" unicode="." horiz-adv-x="294" 
d="M88 0v119h118v-119h-118z" />
    <glyph glyph-name="slash" unicode="/" horiz-adv-x="399" 
d="M85 -13h-68l308 735h68z" />
    <glyph glyph-name="zero" unicode="0" 
d="M512 348q0 -50 -3 -93.5t-12 -81t-25 -69t-42 -58.5q-26 -26 -62 -42.5t-88 -16.5t-88 16.5t-62 42.5q-26 27 -42 58.5t-25 69t-12 81t-3 93.5t3 94t12 81.5t25 69t42 58.5q26 26 62 42t88 16t88 -16t62 -42q26 -27 42 -58.5t25 -69t12 -81.5t3 -94zM423 348
q0 35 -0.5 71t-6 69t-17 61.5t-33.5 49.5q-15 14 -36.5 23t-49.5 9t-49.5 -9t-36.5 -23q-22 -21 -33.5 -49.5t-17 -61.5t-6 -69t-0.5 -71t0.5 -71t6 -69t17 -61.5t33.5 -49.5q15 -14 36.5 -23t49.5 -9t49.5 9t36.5 23q22 21 33.5 49.5t17 61.5t6 69t0.5 71z" />
    <glyph glyph-name="one" unicode="1" horiz-adv-x="570" 
d="M281 0v598l-165 -121v95l170 123h82v-695h-87z" />
    <glyph glyph-name="two" unicode="2" 
d="M72 0v73l281 347q38 48 38 100q0 54 -29.5 83t-84.5 29q-23 0 -44.5 -6.5t-38 -21.5t-26 -39t-9.5 -59h-88q0 45 14.5 82.5t41.5 64.5t65 41.5t84 14.5q57 0 100.5 -21.5t69.5 -58.5q16 -23 24 -49t8 -59q0 -42 -15 -77.5t-44 -70.5l-236 -293h306v-80h-417z" />
    <glyph glyph-name="three" unicode="3" 
d="M494 190q0 -41 -13.5 -77t-39.5 -63q-28 -29 -68.5 -46t-99.5 -17q-51 0 -90.5 17t-68.5 46q-27 27 -42.5 64t-16.5 85h87q2 -29 10.5 -53.5t25.5 -42.5q16 -17 39 -28t56 -11q65 0 101 40q14 16 23.5 37.5t9.5 50.5q0 64 -39.5 96.5t-103.5 32.5h-42v79h42q60 0 94 31
t34 86q0 50 -33 81q-14 14 -35 24t-50 10t-49 -7.5t-36 -20.5q-40 -33 -42 -98h-87q1 52 18.5 89.5t48.5 63.5q29 24 66.5 37t82.5 13q44 0 82 -15t66 -41q26 -24 41 -57.5t15 -78.5q0 -24 -8 -48.5t-21.5 -45.5t-32.5 -37.5t-40 -25.5q28 -9 49.5 -27t36.5 -40.5t22.5 -49
t7.5 -53.5z" />
    <glyph glyph-name="four" unicode="4" 
d="M435 148v-148h-86v148h-319v89l264 458h90l-272 -470h237v207h86v-207h94v-77h-94z" />
    <glyph glyph-name="five" unicode="5" 
d="M510 229q0 -55 -14.5 -100t-43.5 -77q-27 -30 -67 -48t-95 -18q-51 0 -91.5 16t-69.5 44q-59 58 -64 154h85q2 -33 12 -57.5t27 -41.5t42 -27t58 -10q36 0 60.5 12.5t40.5 32.5q34 43 34 116q0 36 -9.5 66.5t-29.5 52.5q-17 18 -40 28.5t-56 10.5q-35 0 -66 -15.5
t-49 -45.5h-95l19 373h384v-77h-311l-11 -222q23 34 62 48.5t84 14.5q46 0 81 -15.5t61 -41.5q31 -32 46.5 -76.5t15.5 -96.5z" />
    <glyph glyph-name="six" unicode="6" 
d="M515 224q0 -53 -17 -95.5t-46 -74.5q-28 -30 -69 -48.5t-95 -18.5q-59 0 -101.5 25.5t-68.5 60.5q-19 26 -30.5 56.5t-18 64.5t-8.5 70.5t-2 73.5q0 75 8.5 147.5t43.5 129.5q25 39 70 66.5t111 27.5q45 0 81.5 -15.5t62.5 -41.5q23 -23 38.5 -55t17.5 -70h-86
q-2 26 -12.5 45t-26.5 33q-15 13 -34 20t-44 7q-33 0 -56 -12t-39 -30q-16 -19 -26 -44t-15 -53.5t-6.5 -58.5t-1.5 -57q17 36 60.5 58.5t93.5 22.5q48 0 84.5 -15t61.5 -39q34 -32 52 -78.5t18 -101.5zM429 223q0 37 -10.5 67t-30.5 52q-16 18 -40.5 29t-57.5 11t-57 -12
t-40 -30q-39 -43 -39 -117q0 -73 41 -117q17 -18 40.5 -30t56.5 -12t56 11t40 29q41 44 41 119z" />
    <glyph glyph-name="seven" unicode="7" 
d="M209 0h-92l289 618h-356v77h446v-77z" />
    <glyph glyph-name="eight" unicode="8" 
d="M505 191q0 -40 -12.5 -71.5t-33.5 -56.5q-31 -37 -77.5 -56.5t-101.5 -19.5t-101.5 19.5t-77.5 56.5q-21 25 -33.5 56.5t-12.5 71.5q0 57 30.5 103t78.5 68q-43 23 -69 64.5t-26 92.5q0 43 15.5 76.5t41.5 57.5q29 27 68.5 41.5t85.5 14.5t85.5 -14.5t68.5 -41.5
q26 -24 41.5 -57.5t15.5 -76.5q0 -51 -26 -92.5t-69 -64.5q48 -22 78.5 -68t30.5 -103zM405 519q0 54 -36.5 84.5t-88.5 30.5t-88.5 -30.5t-36.5 -84.5q0 -24 8.5 -45.5t24 -38t39 -26.5t53.5 -10t53.5 10t39 26.5t24 38t8.5 45.5zM419 195q0 56 -36.5 93t-102.5 37
t-102.5 -37t-36.5 -93q0 -62 39 -97.5t100 -35.5t100 35.5t39 97.5z" />
    <glyph glyph-name="nine" unicode="9" 
d="M505 358q0 -75 -8.5 -147.5t-43.5 -129.5q-25 -39 -70 -66.5t-111 -27.5q-45 0 -81.5 15t-62.5 42q-23 23 -38.5 55t-17.5 70h86q2 -26 12.5 -45t26.5 -33q30 -27 78 -27q33 0 56 12t39 30q17 19 26.5 44t14.5 53.5t6.5 58.5t1.5 57q-17 -36 -60.5 -58.5t-93.5 -22.5
q-48 0 -84.5 15t-61.5 39q-34 32 -52 78t-18 102q0 53 17 95.5t46 74.5q28 30 69 48.5t95 18.5q59 0 101.5 -25.5t68.5 -60.5q19 -26 30.5 -57t18 -65t8.5 -70t2 -73zM410 473q0 73 -41 117q-17 18 -40.5 30t-56.5 12t-56 -11t-40 -29q-41 -44 -41 -119q0 -37 10.5 -67
t30.5 -52q16 -18 40.5 -29t57.5 -11t57 12t40 30q39 44 39 117z" />
    <glyph glyph-name="colon" unicode=":" horiz-adv-x="304" 
d="M106 395v111h110v-111h-110zM106 -1v110h110v-110h-110z" />
    <glyph glyph-name="semicolon" unicode=";" horiz-adv-x="304" 
d="M106 394v112h110v-112h-110zM216 0q0 -55 -19 -90.5t-71 -57.5l-23 44q38 16 49 40.5t11 63.5h-57v110h110v-110v0z" />
    <glyph glyph-name="less" unicode="&#x3c;" horiz-adv-x="472" 
d="M364 -13l-319 318l318 317l49 -48l-269 -269l269 -269z" />
    <glyph glyph-name="equal" unicode="=" horiz-adv-x="692" 
d="M105 344v77h482v-77h-482zM105 134v77h482v-77h-482z" />
    <glyph glyph-name="greater" unicode="&#x3e;" horiz-adv-x="472" 
d="M108 -13l-48 49l269 269l-269 269l49 48l318 -317z" />
    <glyph glyph-name="question" unicode="?" horiz-adv-x="504" 
d="M474 535q0 -60 -28.5 -103t-79.5 -81q-24 -18 -38 -33t-21.5 -30.5t-9.5 -33t-2 -40.5v-25h-82v28q0 40 6.5 68t20 50.5t34.5 42t51 42.5t45.5 49t15.5 67q0 44 -30 76q-17 17 -41 26.5t-51 9.5q-33 0 -58 -11.5t-42 -31t-25.5 -45.5t-8.5 -55h-90q0 42 14.5 82
t42.5 70.5t70 49t97 18.5q42 0 80.5 -13t67 -37.5t45.5 -59.5t17 -80zM200 0v110h106v-110h-106z" />
    <glyph glyph-name="at" unicode="@" horiz-adv-x="943" 
d="M875 380q0 -45 -11 -93t-35 -87t-62.5 -64t-93.5 -25q-38 0 -65.5 18.5t-32.5 57.5q-15 -34 -49 -54t-71 -20q-39 0 -68 14.5t-49 40t-30 60.5t-10 76q0 42 12 79.5t35.5 65t57.5 44t79 16.5q28 0 55 -14t41 -39l11 42h67l-18 -253q-1 -11 0 -22.5t5.5 -20.5t13 -14.5
t22.5 -5.5q33 0 55 21.5t35.5 52t19 64.5t5.5 59q0 62 -19 108.5t-53 80.5q-39 39 -95 59.5t-125 20.5q-70 0 -127 -21.5t-99 -59.5q-51 -45 -78.5 -110.5t-27.5 -148.5q0 -70 23.5 -129.5t65.5 -103.5q40 -41 94.5 -63.5t122.5 -22.5t128 10.5t123 37.5v-73
q-60 -29 -123 -39.5t-129 -10.5q-82 0 -149.5 25t-117.5 71q-59 54 -91 132.5t-32 174.5q0 93 30.5 165.5t85.5 125.5q56 54 131.5 84t168.5 30q86 0 158 -26.5t123 -77.5q44 -43 68.5 -102t24.5 -136zM568 325q0 23 -4.5 43.5t-15 36.5t-27.5 25.5t-43 9.5q-27 0 -45 -13
t-29.5 -32.5t-16 -43.5t-4.5 -47q0 -21 4 -42t14 -38t26 -27.5t41 -10.5q30 0 49 12.5t30.5 32.5t16 44.5t4.5 49.5z" />
    <glyph glyph-name="A" unicode="A" horiz-adv-x="621" 
d="M521 0l-58 168h-308l-57 -168h-90l250 709h104l251 -709h-92zM308 620l-125 -368h251z" />
    <glyph glyph-name="B" unicode="B" horiz-adv-x="668" 
d="M618 198q0 -43 -15.5 -75.5t-38.5 -57.5q-30 -32 -77.5 -48.5t-100.5 -16.5h-286v709h283q50 0 97 -16.5t76 -48.5q21 -23 33.5 -51.5t12.5 -66.5q0 -51 -26 -95t-76 -62q27 -9 49 -26.5t37.5 -40t23.5 -49.5t8 -55zM511 519q0 28 -10.5 48.5t-28 34.5t-40.5 21t-49 7
h-196v-223h199q56 0 90.5 26t34.5 86zM527 204q0 30 -11 53t-30 39t-44.5 24.5t-53.5 8.5h-201v-247h199q29 0 55 7.5t45 22.5t30 38t11 54z" />
    <glyph glyph-name="C" unicode="C" horiz-adv-x="634" 
d="M594 226q-2 -50 -20.5 -91t-49.5 -73q-32 -32 -82 -54t-108 -22q-54 0 -104 19t-88 57q-29 28 -46.5 61.5t-27 70.5t-12.5 77.5t-3 82.5t3 82.5t12.5 77.5t27 70.5t46.5 61.5q38 38 88 57t104 19q58 0 107.5 -20.5t81.5 -52.5q31 -32 49.5 -72t20.5 -90h-92
q-1 29 -11.5 54t-27.5 45q-21 23 -54 37.5t-74 14.5q-36 0 -69.5 -14t-59.5 -40q-22 -22 -34 -50.5t-18 -59t-7 -61.5t-1 -59t1 -59t7 -61.5t18 -58.5t34 -51q26 -26 59.5 -40t69.5 -14q41 0 74.5 15.5t54.5 38.5q17 20 27.5 46.5t11.5 55.5h92v0z" />
    <glyph glyph-name="D" unicode="D" horiz-adv-x="677" 
d="M624 355q0 -38 -3.5 -77t-13 -75.5t-27.5 -70t-47 -61.5q-38 -36 -86 -53.5t-100 -17.5h-247v709h247q52 0 100 -18t86 -54q29 -28 47 -61t28 -69.5t13 -75t3 -76.5zM534 355q0 29 -1.5 59t-8 59.5t-18.5 56t-33 48.5q-25 25 -58 37t-68 12h-158v-545h158q35 0 68 12
t58 37q21 21 33 48t18.5 56.5t8 60.5t1.5 59z" />
    <glyph glyph-name="E" unicode="E" horiz-adv-x="625" 
d="M100 0v709h474v-82h-385v-216h338v-84h-338v-245h385v-82h-474z" />
    <glyph glyph-name="F" unicode="F" horiz-adv-x="587" 
d="M189 627v-231h330v-84h-330v-312h-89v709h459v-82h-370z" />
    <glyph glyph-name="G" unicode="G" horiz-adv-x="680" 
d="M544 0l-15 85q-13 -22 -33.5 -40t-46 -31t-54.5 -20.5t-59 -7.5q-54 0 -103.5 17.5t-87.5 55.5q-54 53 -73 126t-19 169q0 42 3.5 82.5t13.5 77.5t28 70.5t47 61.5q38 38 87.5 57t103.5 19q60 0 113 -20.5t90 -59.5q26 -27 42.5 -61t18.5 -77h-93q-2 25 -10 43t-22 35
q-24 29 -59.5 42.5t-79.5 13.5q-36 0 -69.5 -14t-59.5 -40q-22 -22 -34.5 -50.5t-18.5 -59t-7.5 -61.5t-1.5 -59q0 -27 1.5 -58t8 -62.5t19.5 -60.5t35 -52q26 -26 58.5 -38.5t68.5 -12.5q38 0 71.5 12.5t57.5 36.5q35 35 48 83t13 97h-190v83h270v-382h-62z" />
    <glyph glyph-name="H" unicode="H" horiz-adv-x="718" 
d="M529 0v327h-340v-327h-89v709h89v-296h340v296h89v-709h-89z" />
    <glyph glyph-name="I" unicode="I" horiz-adv-x="291" 
d="M100 0v709h91v-709h-91z" />
    <glyph glyph-name="J" unicode="J" horiz-adv-x="493" 
d="M413 198q0 -48 -13 -86.5t-38.5 -66.5t-63 -43t-85.5 -15q-49 0 -85.5 16.5t-62.5 43.5q-31 32 -44 73t-13 95h90q0 -37 7 -66t30 -50q14 -14 33 -21.5t45 -7.5q61 0 86 34.5t25 93.5v511h89v-511v0z" />
    <glyph glyph-name="K" unicode="K" horiz-adv-x="662" 
d="M545 0l-212 368l-144 -168v-200h-89v709h89v-378l325 378h111l-231 -270l255 -439h-104z" />
    <glyph glyph-name="L" unicode="L" horiz-adv-x="544" 
d="M100 0v709h89v-626h341v-83h-430z" />
    <glyph glyph-name="M" unicode="M" horiz-adv-x="880" 
d="M695 0v598l-220 -588h-70l-220 593v-603h-85v709h128l214 -577l213 577h125v-709h-85z" />
    <glyph glyph-name="N" unicode="N" horiz-adv-x="734" 
d="M534 0l-348 570v-570h-86v709h100l348 -572v572h86v-709h-100z" />
    <glyph glyph-name="O" unicode="O" horiz-adv-x="670" 
d="M617 354q0 -42 -3.5 -82.5t-13 -77.5t-27.5 -70.5t-47 -61.5q-38 -38 -87.5 -57t-103.5 -19t-103.5 19t-87.5 57q-29 28 -47 61.5t-27.5 70.5t-13 77.5t-3.5 82.5t3.5 82.5t13 77.5t27.5 70.5t47 61.5q38 38 87.5 57t103.5 19t103.5 -19t87.5 -57q29 -28 47 -61.5
t27.5 -70.5t13 -77.5t3.5 -82.5zM525 354q0 28 -1.5 59t-7.5 61.5t-18 59t-34 50.5q-26 26 -59.5 39.5t-69.5 13.5t-69.5 -13.5t-59.5 -39.5q-22 -22 -34 -50.5t-18 -59t-7.5 -61.5t-1.5 -59t1.5 -59t7.5 -61.5t18 -58.5t34 -51q26 -26 59.5 -39.5t69.5 -13.5t69.5 13.5
t59.5 39.5q22 23 34 51t18 58.5t7.5 61.5t1.5 59z" />
    <glyph glyph-name="P" unicode="P" horiz-adv-x="627" 
d="M597 495q0 -102 -59 -161q-29 -29 -72 -44t-102 -15h-175v-275h-89v709h263q63 0 107 -16.5t73 -47.5q26 -28 40 -65.5t14 -84.5zM505 495q0 68 -39 100.5t-105 32.5h-172v-272h173q72 0 107.5 33.5t35.5 105.5z" />
    <glyph glyph-name="Q" unicode="Q" horiz-adv-x="670" 
d="M617 354q0 -42 -3.5 -82.5t-13 -77.5t-27 -70t-46.5 -61l64 -83l-59 -46l-65 84q-62 -32 -132 -32q-54 0 -103.5 19t-87.5 57q-29 28 -47 61.5t-27.5 70.5t-13 77.5t-3.5 82.5t3.5 82.5t13 77.5t27.5 70.5t47 61.5q38 38 87.5 57t103.5 19t103.5 -19t87.5 -57
q29 -28 47 -61.5t27.5 -70.5t13 -77.5t3.5 -82.5zM525 354q0 28 -1.5 59t-7.5 61.5t-18 59t-34 50.5q-26 26 -59.5 39.5t-69.5 13.5t-69.5 -13.5t-59.5 -39.5q-22 -22 -34 -50.5t-18 -59t-7.5 -61.5t-1.5 -59t1.5 -59t7.5 -61.5t18 -58.5t34 -51q26 -26 59.5 -39.5
t69.5 -13.5q39 0 78 17l-84 108l58 45l85 -108q19 23 29.5 50t16 56.5t6.5 58.5t1 56z" />
    <glyph glyph-name="R" unicode="R" horiz-adv-x="662" 
d="M519 0l-134 295h-196v-295h-89v709h278q63 0 107 -16.5t73 -46.5q26 -27 41 -62t15 -82t-14 -80t-40 -60q-16 -17 -37.5 -29.5t-47.5 -20.5l142 -312h-98zM522 502q0 34 -10.5 57.5t-30 38.5t-45.5 22t-58 7h-189v-249h189q63 0 103.5 28.5t40.5 95.5z" />
    <glyph glyph-name="S" unicode="S" horiz-adv-x="635" 
d="M585 195q0 -45 -17 -78t-43 -59q-37 -36 -90.5 -53.5t-110.5 -17.5q-129 0 -203 68q-34 32 -55 75.5t-21 94.5h93q0 -32 14 -61.5t36 -50.5q24 -23 61 -33.5t75 -10.5q41 0 74.5 9t57.5 32q17 15 26.5 34.5t9.5 48.5q0 42 -28 73t-91 41q-29 5 -56 8.5t-56 8.5
q-40 6 -74.5 20t-60 37.5t-40 56t-14.5 74.5q0 40 16.5 76.5t45.5 63.5q75 70 186 70q52 0 100.5 -17t83.5 -51q65 -62 68 -152h-93q-2 26 -11 49t-24 40q-20 23 -51.5 36t-73.5 13q-38 0 -70.5 -11.5t-55.5 -37.5q-14 -16 -21.5 -34.5t-7.5 -42.5t9 -41.5t24 -29.5t34 -19
t39 -10q30 -4 59.5 -8.5t58.5 -9.5q89 -13 143 -64.5t54 -136.5z" />
    <glyph glyph-name="T" unicode="T" horiz-adv-x="538" 
d="M314 626v-626h-90v626h-211v83h512v-83h-211z" />
    <glyph glyph-name="U" unicode="U" horiz-adv-x="678" 
d="M598 260q0 -66 -18 -117t-52 -85.5t-81.5 -52.5t-107.5 -18t-107.5 18t-81.5 52.5t-52 85.5t-18 117v449h89v-451q0 -42 9.5 -77t29.5 -59.5t52.5 -38t78.5 -13.5t78.5 13.5t52.5 38t29.5 59.5t9.5 77v451h89v-449v0z" />
    <glyph glyph-name="V" unicode="V" horiz-adv-x="579" 
d="M336 0h-93l-239 709h92l196 -599l192 599h91z" />
    <glyph glyph-name="W" unicode="W" horiz-adv-x="862" 
d="M689 0h-95l-162 571l-164 -571h-94l-142 709h83l113 -578l164 568h80l164 -567l113 577h81z" />
    <glyph glyph-name="X" unicode="X" horiz-adv-x="584" 
d="M470 0l-180 291l-178 -291h-97l224 358l-220 351h99l178 -287l175 287h95l-221 -351l224 -358h-99z" />
    <glyph glyph-name="Y" unicode="Y" horiz-adv-x="566" 
d="M328 288v-288h-90v288l-238 421h100l186 -337l185 337h95z" />
    <glyph glyph-name="Z" unicode="Z" horiz-adv-x="612" 
d="M43 0v89l413 537h-409v83h515v-90l-414 -536h418v-83h-523z" />
    <glyph glyph-name="bracketleft" unicode="[" horiz-adv-x="311" 
d="M98 -114v871h188v-62h-119v-747h119v-62h-188z" />
    <glyph glyph-name="backslash" unicode="\" horiz-adv-x="400" 
d="M313 -13l-308 735h70l308 -735h-70z" />
    <glyph glyph-name="bracketright" unicode="]" horiz-adv-x="311" 
d="M25 -114v62h118v747h-118v62h188v-871h-188z" />
    <glyph glyph-name="asciicircum" unicode="^" horiz-adv-x="542" 
d="M388 405l-117 225l-118 -225h-88l168 317h76l168 -317h-89z" />
    <glyph glyph-name="underscore" unicode="_" horiz-adv-x="545" 
d="M25 -60v60h495v-60h-495z" />
    <glyph glyph-name="grave" unicode="`" horiz-adv-x="240" 
d="M195 551l-185 99l45 71l171 -123z" />
    <glyph glyph-name="a" unicode="a" horiz-adv-x="559" 
d="M517 5q-14 -7 -27 -9.5t-29 -2.5q-34 0 -53.5 22.5t-19.5 54.5h-2q-22 -38 -65.5 -60.5t-97.5 -22.5q-43 0 -76 13.5t-54.5 35.5t-32.5 50t-11 57q0 24 8.5 51t29.5 49.5t55.5 38.5t86.5 19l154 9v37q0 19 -4.5 40t-21.5 37q-13 12 -32.5 19t-50.5 7q-35 0 -57 -8.5
t-35 -21.5q-25 -25 -25 -61h-83q1 35 12.5 60.5t31.5 45.5q26 27 67.5 40.5t88.5 13.5q74 0 117 -27.5t61 -69.5q15 -34 15 -78v-245q0 -20 7.5 -27t20.5 -7q6 0 14 2q4 1 8 1v-63v0zM383 244l-136 -8q-19 -1 -39 -6.5t-36 -16t-26 -27.5t-10 -41q0 -34 23 -60.5t77 -26.5
q29 0 56.5 10t47.5 31q23 23 33 53t10 62v30z" />
    <glyph glyph-name="b" unicode="b" horiz-adv-x="595" 
d="M541 252q0 -63 -18.5 -118t-54.5 -92q-25 -26 -60.5 -40.5t-82.5 -14.5q-43 0 -86 20.5t-65 58.5l-6 -66h-75v722h85v-275q10 17 26.5 30.5t36.5 22.5t41.5 14t42.5 5q45 0 79.5 -14t59.5 -37q38 -37 57.5 -93.5t19.5 -122.5zM454 253q0 35 -6.5 69.5t-22.5 62.5t-44 45
t-70 17q-28 0 -47.5 -9.5t-34.5 -23.5q-32 -28 -44 -70.5t-12 -90.5t12 -90.5t44 -70.5q15 -14 34.5 -23.5t47.5 -9.5q42 0 70 17t44 45t22.5 62.5t6.5 69.5z" />
    <glyph glyph-name="c" unicode="c" horiz-adv-x="532" 
d="M486 170q-3 -41 -18 -72t-41 -56q-27 -26 -63 -40.5t-83 -14.5q-69 0 -113.5 27.5t-71.5 67.5q-20 30 -31 72t-11 99t11 99t31 72q27 40 71.5 67.5t112.5 27.5q45 0 81.5 -14t62.5 -40q26 -25 41.5 -56.5t18.5 -73.5h-86q-3 26 -12.5 45.5t-23.5 33.5q-15 14 -36 22.5
t-46 8.5q-29 0 -50 -9.5t-38 -23.5q-30 -26 -40.5 -69t-10.5 -90t10.5 -90t40.5 -69q17 -14 38 -23.5t50 -9.5q26 0 48.5 9t37.5 25q14 14 22.5 32t11.5 43h86v0z" />
    <glyph glyph-name="d" unicode="d" horiz-adv-x="595" 
d="M427 0l-6 66q-22 -38 -65 -58.5t-86 -20.5q-47 0 -82.5 14.5t-60.5 40.5q-36 37 -54.5 92t-18.5 118q0 66 19.5 122.5t57.5 93.5q25 23 59.5 37t79.5 14q21 0 42.5 -5t41.5 -14t36.5 -22.5t26.5 -30.5v275h85v-722h-75zM422 253q0 48 -12 90.5t-44 70.5
q-15 14 -34.5 23.5t-47.5 9.5q-42 0 -70 -17t-44 -45t-22.5 -62.5t-6.5 -69.5t6.5 -69.5t22.5 -62.5t44 -45t70 -17q28 0 47.5 9.5t34.5 23.5q32 28 44 70.5t12 90.5z" />
    <glyph glyph-name="e" unicode="e" horiz-adv-x="551" 
d="M500 225h-358q0 -35 13 -69.5t36 -57.5q36 -36 93 -36q30 0 54 8t40 25q11 11 18 23t12 32h83q-5 -38 -26 -71t-52 -54q-27 -18 -60 -28t-69 -10q-54 0 -96.5 20.5t-71.5 55.5q-32 37 -47.5 85.5t-15.5 102.5q0 46 9 86.5t30 75.5q27 46 76 76t115 30q49 0 87.5 -17.5
t66.5 -47.5q31 -34 48 -80.5t16 -97.5zM414 298q0 29 -8 56t-23 47q-16 21 -41 33.5t-59 12.5t-60 -13t-43 -34t-26 -47.5t-10 -54.5h270v0z" />
    <glyph glyph-name="f" unicode="f" horiz-adv-x="366" 
d="M361 652q-20 2 -38.5 5t-45.5 3q-34 0 -53 -19t-19 -50v-85h146v-72h-146v-434h-85v434h-92v72h92v90q0 29 10.5 53.5t30 43t46.5 29t60 10.5q26 0 49.5 -2.5t44.5 -6.5v-71v0z" />
    <glyph glyph-name="g" unicode="g" horiz-adv-x="540" 
d="M525 -75q0 -33 -12.5 -58.5t-30.5 -43.5t-42.5 -29.5t-51.5 -18t-55 -9t-55 -2.5q-25 0 -51.5 2.5t-51.5 9t-48 18t-41 29.5q-16 16 -26 38t-10 52q0 40 21 68.5t51 43.5q-26 10 -42.5 33t-16.5 52q0 34 19 59t48 39q-28 25 -43 60t-15 71q0 42 13 71t35 52
q26 27 62.5 42t87.5 15q36 0 64.5 -8t51.5 -22q13 34 40.5 52.5t63.5 18.5q6 0 12.5 -0.5t12.5 -1.5v-69q-4 1 -9 1h-10q-25 0 -41.5 -12.5t-20.5 -33.5q16 -20 24.5 -45.5t8.5 -59.5q0 -36 -12.5 -67t-33.5 -54q-25 -27 -62.5 -43.5t-88.5 -16.5q-26 0 -43.5 3t-41.5 11
q-14 -5 -27.5 -16t-15.5 -29q-1 -16 6 -26t18.5 -15t25.5 -7t26 -2h100q45 0 91 -11t76 -42q18 -18 29 -42.5t11 -56.5zM442 -75q0 32 -16 48.5t-39.5 23.5t-51.5 7.5t-52 0.5h-92q-26 -8 -45 -29.5t-19 -50.5q0 -32 21 -53q12 -12 28.5 -19t34.5 -10.5t37 -4.5t35 -1t35 1
t38 5t36 11t29 19q21 21 21 52zM384 339q0 48 -30.5 79.5t-84.5 31.5q-52 0 -83.5 -31.5t-31.5 -79.5t30.5 -80.5t84.5 -32.5q52 0 83.5 32.5t31.5 80.5z" />
    <glyph glyph-name="h" unicode="h" horiz-adv-x="587" 
d="M417 0v321q0 57 -25.5 89t-85.5 32q-37 0 -65 -21.5t-45 -56.5q-13 -28 -15.5 -64t-2.5 -65v-235h-85v722h85v-283q23 39 64 59.5t84 20.5q87 0 131.5 -49t44.5 -137v-333h-85z" />
    <glyph glyph-name="i" unicode="i" horiz-adv-x="273" 
d="M87 622v100h99v-100h-99zM93 0v506h87v-506h-87z" />
    <glyph glyph-name="j" unicode="j" horiz-adv-x="283" 
d="M97 622v100h99v-100h-99zM190 -71q0 -66 -33.5 -104.5t-105.5 -38.5q-20 0 -33.5 2t-32.5 8v73q16 -3 31.5 -4t31.5 -1q29 0 43 19t14 45v578h85v-577v0z" />
    <glyph glyph-name="k" unicode="k" horiz-adv-x="545" 
d="M433 0l-158 244l-97 -108v-136h-85v722h85v-471l229 255h103l-180 -200l199 -306h-96z" />
    <glyph glyph-name="l" unicode="l" horiz-adv-x="291" 
d="M241 -3q-15 -3 -45 -3q-56 0 -81 32t-25 92v604h85v-599q0 -26 10 -39t36 -13q11 0 17.5 0.5t10.5 0.5h7v-72z" />
    <glyph glyph-name="m" unicode="m" horiz-adv-x="878" 
d="M708 0v322q0 27 -5 49t-16.5 37.5t-31.5 24.5t-50 9q-24 0 -43 -9t-34 -25q-26 -26 -34.5 -62.5t-8.5 -76.5v-269h-85v322q0 27 -4.5 49t-16 37.5t-31.5 24.5t-50 9q-27 0 -48.5 -12.5t-37.5 -32.5q-19 -24 -26.5 -60t-7.5 -68v-269h-85v506h74l8 -72q20 43 59.5 64
t82.5 21q57 0 95.5 -24.5t55.5 -71.5q10 24 26.5 42t37.5 30t44.5 18t47.5 6q86 0 127.5 -51t41.5 -135v-333h-85z" />
    <glyph glyph-name="n" unicode="n" horiz-adv-x="585" 
d="M417 0v321q0 57 -25.5 89t-85.5 32q-37 0 -65 -21.5t-45 -56.5q-13 -28 -15.5 -64t-2.5 -65v-235h-85v506h74l7 -76q10 22 27 38.5t38 28t44 17t44 5.5q87 0 131 -49t44 -137v-333h-85z" />
    <glyph glyph-name="o" unicode="o" horiz-adv-x="558" 
d="M504 253q0 -60 -15 -113t-57 -94q-28 -27 -66.5 -43t-86.5 -16t-86.5 16t-66.5 43q-42 41 -57 94t-15 113t15 113t57 94q28 27 66.5 43t86.5 16t86.5 -16t66.5 -43q42 -41 57 -94t15 -113zM417 253q0 45 -10 87t-37 70q-16 16 -38.5 26t-52.5 10t-52.5 -10t-38.5 -26
q-27 -28 -37 -70t-10 -87t10 -87t37 -70q16 -16 38.5 -26t52.5 -10t52.5 10t38.5 26q27 28 37 70t10 87z" />
    <glyph glyph-name="p" unicode="p" horiz-adv-x="595" 
d="M541 253q0 -66 -19.5 -122.5t-57.5 -93.5q-25 -23 -59.5 -37t-79.5 -14q-21 0 -42.5 5t-41.5 14t-36.5 22.5t-26.5 30.5v-275h-85v722h75l6 -66q22 38 65 58.5t86 20.5q47 0 82.5 -14.5t60.5 -40.5q36 -37 54.5 -92t18.5 -118zM454 252q0 35 -6.5 69.5t-22.5 62.5t-44 45
t-70 17q-28 0 -47.5 -9.5t-34.5 -23.5q-32 -28 -44 -70.5t-12 -90.5t12 -90.5t44 -70.5q15 -14 34.5 -23.5t47.5 -9.5q42 0 70 17t44 45t22.5 62.5t6.5 69.5z" />
    <glyph glyph-name="q" unicode="q" horiz-adv-x="595" 
d="M417 -217v275q-10 -17 -26.5 -30.5t-36.5 -22.5t-41.5 -14t-42.5 -5q-45 0 -79.5 14t-59.5 37q-38 37 -57.5 93.5t-19.5 122.5q0 63 18.5 118t54.5 92q25 26 60.5 40.5t82.5 14.5q43 0 86 -20.5t65 -58.5l6 66h75v-722h-85zM422 252q0 48 -12 90.5t-44 70.5
q-15 14 -34.5 23.5t-47.5 9.5q-42 0 -70 -17t-44 -45t-22.5 -62.5t-6.5 -69.5t6.5 -69.5t22.5 -62.5t44 -45t70 -17q28 0 47.5 9.5t34.5 23.5q32 28 44 70.5t12 90.5z" />
    <glyph glyph-name="r" unicode="r" horiz-adv-x="384" 
d="M366 423q-11 2 -23.5 3t-23.5 1q-30 0 -54.5 -11.5t-41.5 -28.5q-15 -15 -24.5 -34.5t-14 -41t-6 -44t-1.5 -42.5v-225h-84v506h75l7 -89q20 47 61.5 69.5t89.5 22.5q21 0 40 -3v-83v0z" />
    <glyph glyph-name="s" unicode="s" horiz-adv-x="521" 
d="M468 147q0 -33 -11 -58.5t-29 -44.5q-29 -30 -72 -43.5t-93 -13.5q-48 0 -90 12.5t-74 44.5q-23 23 -36 53.5t-13 62.5h85q1 -26 12 -45.5t29 -33.5q17 -13 42 -18t49 -5q26 0 49.5 5.5t43.5 22.5q11 8 18 23t7 32q0 29 -20 48t-59 24q-8 1 -22 3t-30 4t-32.5 4t-29.5 4
q-57 9 -90.5 43.5t-33.5 92.5q0 29 12.5 55.5t29.5 43.5q25 26 63 41t86 15q51 0 93 -16t68 -48q17 -20 26.5 -43t9.5 -54h-85q-1 20 -9.5 36.5t-19.5 26.5q-30 27 -83 27q-15 0 -28 -1t-31 -9q-24 -10 -37.5 -28.5t-13.5 -39.5q0 -32 18 -46.5t50 -19.5q21 -3 51 -6.5
t71 -10.5q54 -9 91.5 -46t37.5 -94z" />
    <glyph glyph-name="t" unicode="t" horiz-adv-x="385" 
d="M355 7q-17 -5 -41.5 -9.5t-59.5 -4.5q-41 0 -68 12t-42.5 31t-22 44t-6.5 50v303h-98v73h98v129l85 20v-149h150v-73h-150v-293q0 -37 16.5 -53t51.5 -16q14 0 29 1.5t28 3.5l30 4v-73v0z" />
    <glyph glyph-name="u" unicode="u" horiz-adv-x="582" 
d="M415 0l-7 77q-20 -44 -62.5 -66.5t-87.5 -22.5q-87 0 -130 49t-43 137v332h85v-320q0 -57 24 -89t84 -32q26 0 46.5 10.5t37.5 27.5q24 25 33 63t9 77v263h85v-506h-74z" />
    <glyph glyph-name="v" unicode="v" horiz-adv-x="486" 
d="M291 0h-92l-187 506h89l146 -406l141 406h86z" />
    <glyph glyph-name="w" unicode="w" horiz-adv-x="767" 
d="M598 0h-82l-132 387l-135 -387h-81l-130 506h84l97 -382l129 376h73l127 -376l98 382h83z" />
    <glyph glyph-name="x" unicode="x" horiz-adv-x="498" 
d="M379 0l-133 199l-132 -199h-97l172 258l-170 248h100l132 -191l127 191h98l-171 -248l176 -258h-102z" />
    <glyph glyph-name="y" unicode="y" horiz-adv-x="498" 
d="M260 -104q-18 -49 -49 -78.5t-88 -29.5q-32 0 -52 4t-25 6v74q8 -2 18 -4q8 -2 19 -3t23 -1q27 0 46 11t30 40l32 85l-202 506h96l149 -399l142 399h89z" />
    <glyph glyph-name="z" unicode="z" horiz-adv-x="501" 
d="M53 0v75l294 357h-294v74h397v-75l-293 -357h296v-74h-400z" />
    <glyph glyph-name="braceleft" unicode="{" horiz-adv-x="349" 
d="M312 -119q-44 0 -74 11t-48 33t-26 53.5t-8 72.5v156q0 21 -9.5 34.5t-24 22.5t-32.5 13.5t-35 5.5v72q15 2 33 7.5t33 15t25 23t10 32.5v154q0 43 7 75t24.5 53.5t48 32t76.5 10.5h26v-63h-26q-54 0 -70.5 -25.5t-16.5 -76.5v-161q0 -47 -24.5 -73.5t-69.5 -34.5v-2
q40 -10 67 -36.5t27 -69.5v-161q0 -23 4 -43t14 -35t27 -24t43 -9h26v-63h-27z" />
    <glyph glyph-name="bar" unicode="|" horiz-adv-x="269" 
d="M100 -119v877h69v-877h-69z" />
    <glyph glyph-name="braceright" unicode="}" horiz-adv-x="349" 
d="M294 283q-17 -1 -35 -5.5t-32.5 -13t-24 -22.5t-9.5 -35v-156q0 -41 -8 -72.5t-26 -53.5t-48 -33t-74 -11h-27v63h26q26 0 43 9t27 24t14 35t4 43v161q0 43 27 69.5t67 36.5v2q-45 8 -69.5 34.5t-24.5 73.5v161q0 51 -16.5 76.5t-70.5 25.5h-26v63h26q47 0 77 -10.5
t47.5 -32t24.5 -53.5t7 -75v-154q0 -19 10 -32.5t25 -23t33 -15t33 -7.5v-72v0z" />
    <glyph glyph-name="asciitilde" unicode="~" horiz-adv-x="639" 
d="M564 311q-24 -24 -43 -39.5t-36 -24t-33.5 -11.5t-34.5 -3q-28 0 -58 10t-59 24q-19 9 -38.5 17.5t-40.5 8.5q-10 0 -20.5 -1.5t-22 -6.5t-24.5 -14.5t-30 -26.5l-49 56q23 24 42.5 39.5t36.5 24t33.5 11.5t34.5 3q21 0 40.5 -4.5t39.5 -12.5t38.5 -17t37.5 -16
q21 -8 39 -8q10 0 20.5 1t22 6t25 14.5t29.5 26.5l50 -57v0z" />
    <glyph glyph-name="Zcaron" horiz-adv-x="612" 
d="M43 0v89l413 537h-409v83h515v-90l-414 -536h418v-83h-523zM196 930l108 -115l107 115l45 -45l-125 -131h-55l-125 131z" />
    <glyph glyph-name="Zcaron" unicode="&#x17d;" horiz-adv-x="612" 
d="M43 0v89l413 537h-409v83h515v-90l-414 -536h418v-83h-523zM196 930l108 -115l107 115l45 -45l-125 -131h-55l-125 131z" />
    <glyph glyph-name="zcaron" horiz-adv-x="501" 
d="M53 0v75l294 357h-294v74h397v-75l-293 -357h296v-74h-400zM156 710l98 -103l96 103l40 -40l-112 -118h-50l-112 118z" />
    <glyph glyph-name="zcaron" unicode="&#x17e;" horiz-adv-x="501" 
d="M53 0v75l294 357h-294v74h397v-75l-293 -357h296v-74h-400zM156 710l98 -103l96 103l40 -40l-112 -118h-50l-112 118z" />
    <glyph glyph-name="exclamdown" unicode="&#xa1;" horiz-adv-x="331" 
d="M95 396v109h106v-109h-106zM95 -204v224l23 270h58l21 -270v-224h-102z" />
    <glyph glyph-name="cent" unicode="&#xa2;" 
d="M496 271q-3 -41 -18 -73.5t-41 -57.5q-46 -46 -120 -54v-86h-61v87q-53 6 -88.5 30.5t-61.5 61.5q-23 35 -32.5 78.5t-9.5 93.5t9 93t32 78q26 38 61.5 62.5t89.5 30.5v94h61v-93q36 -4 65 -18t52 -35q26 -25 41.5 -58t18.5 -75h-86q-6 52 -36 82q-22 22 -55 28v-378
q37 8 59 31q28 30 34 78h86v0zM256 540q-31 -7 -51.5 -25.5t-32.5 -44t-16.5 -56.5t-4.5 -63t4.5 -63t16.5 -57t32.5 -44t51.5 -25v378z" />
    <glyph glyph-name="sterling" unicode="&#xa3;" 
d="M543 157q0 -81 -43 -119t-121 -38h-327v79q79 2 79 80v172h-80v73h80v109q0 38 12.5 73.5t37 63t61 44t83.5 16.5q43 0 77.5 -14t59 -38t38 -57t13.5 -71h-85q0 47 -28 76t-77 29q-57 0 -81.5 -35.5t-24.5 -86.5v-109h161v-73h-161v-176q0 -23 -9 -46.5t-34 -30.5v-2
l208 1q38 0 57 21.5t20 58.5h84v0z" />
    <glyph glyph-name="currency" unicode="&#xa4;" 
d="M479 -12l-70 78q-28 -20 -60 -30.5t-69 -10.5t-68.5 10.5t-60.5 30.5l-69 -78l-65 64l79 68q-20 28 -31 63t-11 71t11 71t31 63l-79 65l66 66l67 -77q58 40 130 40t129 -40l69 78l65 -67l-78 -65q20 -28 31 -63t11 -71t-11 -71t-31 -63l78 -68zM425 254q0 31 -10 58.5
t-28.5 47.5t-45.5 32t-61 12q-37 0 -64 -11.5t-45 -31.5t-27 -47.5t-9 -59.5q0 -29 9.5 -56.5t28 -48.5t45.5 -33.5t62 -12.5t62 12t45.5 32t28 48t9.5 59z" />
    <glyph glyph-name="yen" unicode="&#xa5;" 
d="M366 382h132v-61h-174v-91h174v-61h-174v-169h-89v169h-163v61h163v91h-163v61h121l-178 313h94l174 -309l170 309h92z" />
    <glyph glyph-name="brokenbar" unicode="&#xa6;" horiz-adv-x="276" 
d="M100 450v309h76v-309h-76zM100 -50v308h76v-308h-76z" />
    <glyph glyph-name="section" unicode="&#xa7;" horiz-adv-x="562" 
d="M502 163q0 -22 -7.5 -42.5t-19.5 -37.5t-27.5 -31t-31.5 -24q20 -23 30.5 -49.5t10.5 -59.5q0 -35 -13 -64.5t-34 -49.5q-50 -48 -131 -48q-84 0 -135 54q-46 49 -46 125h83q0 -21 5.5 -41t20.5 -37q12 -14 31.5 -21.5t40.5 -7.5q40 0 67.5 23.5t27.5 64.5q0 26 -11 45.5
t-31 36.5l-202 171q-35 29 -50 61.5t-15 73.5q0 23 7.5 43t19.5 37.5t27.5 31t31.5 23.5q-20 23 -30.5 49.5t-10.5 59.5q0 35 13 63.5t34 48.5q24 23 57.5 36.5t73.5 13.5q84 0 135 -54q46 -49 46 -125h-83q0 21 -5.5 41t-20.5 37q-12 14 -31.5 21.5t-40.5 7.5
q-40 0 -67.5 -23.5t-27.5 -64.5q0 -26 11 -45.5t31 -36.5l202 -171q35 -29 50 -61.5t15 -73.5zM200 394q-24 -13 -37 -33.5t-15.5 -43.5t6.5 -45.5t29 -39.5l184 -158q24 13 37 33.5t15.5 43.5t-6.5 45.5t-29 39.5z" />
    <glyph glyph-name="dieresis" unicode="&#xa8;" horiz-adv-x="290" 
d="M187 599v92h92v-92h-92zM11 599v92h92v-92h-92z" />
    <glyph glyph-name="copyright" unicode="&#xa9;" horiz-adv-x="861" 
d="M796 354q0 -76 -29 -143.5t-78.5 -118t-116 -79.5t-142.5 -29t-142.5 29t-116 79.5t-78 118t-28.5 143.5q0 77 28.5 144t78 117.5t116 79.5t142.5 29t142.5 -29t116 -79.5t78.5 -117.5t29 -144zM725 354q0 62 -23 116.5t-63 95t-94 64t-115 23.5t-115 -23.5t-94 -64
t-63 -95t-23 -116.5t23 -116.5t63 -95t94 -64t115 -23.5t115 23.5t94 64t63 95t23 116.5zM600 298q-5 -69 -49.5 -107.5t-116.5 -38.5q-45 0 -78.5 15.5t-56 42.5t-34 63.5t-11.5 77.5q0 42 10.5 79t33 64t56.5 42.5t80 15.5q68 0 114 -39.5t52 -107.5h-76q-5 41 -30.5 60.5
t-59.5 19.5q-30 0 -50 -11t-32 -29.5t-17 -42.5t-5 -50q0 -27 5 -51t17 -42t32 -29t50 -11q80 0 92 79h74v0z" />
    <glyph glyph-name="ordfeminine" unicode="&#xaa;" horiz-adv-x="484" 
d="M420 315q-11 -6 -21.5 -8t-22.5 -2q-26 0 -41 16.5t-17 39.5q-17 -28 -49 -44t-72 -16q-33 0 -58.5 10t-42 27t-25 38.5t-8.5 44.5q0 19 7 39.5t23 38t42.5 30t66.5 14.5l113 7v26q0 14 -2.5 30.5t-15.5 27.5q-9 8 -24 13.5t-38 5.5q-26 0 -42 -6t-26 -16
q-18 -18 -18 -48h-67q1 33 13.5 57t33.5 39t48.5 22.5t57.5 7.5q57 0 90 -21.5t47 -53.5q6 -14 8 -28.5t2 -31.5v-186q0 -15 5.5 -19.5t14.5 -4.5q7 0 11 1t7 1v-51v0zM315 496l-100 -6q-15 -1 -29.5 -5t-26 -12t-19 -20t-7.5 -30q0 -25 16.5 -44.5t57.5 -19.5q22 0 41.5 7
t34.5 23q17 17 24.5 40t7.5 46v21z" />
    <glyph glyph-name="guillemotleft" unicode="&#xab;" horiz-adv-x="550" 
d="M441 68l-164 230l164 230l53 -38l-111 -191l112 -191zM209 68l-164 230l164 230l53 -38l-111 -191l112 -191z" />
    <glyph glyph-name="logicalnot" unicode="&#xac;" horiz-adv-x="625" 
d="M462 99v165h-407v77h485v-242h-78z" />
    <glyph glyph-name="registered" unicode="&#xae;" horiz-adv-x="861" 
d="M796 354q0 -76 -29 -143.5t-78.5 -118t-116 -79.5t-142.5 -29t-142.5 29t-116 79.5t-78 118t-28.5 143.5q0 77 28.5 144t78 117.5t116 79.5t142.5 29t142.5 -29t116 -79.5t78.5 -117.5t29 -144zM725 354q0 62 -23 116.5t-63 95t-94 64t-115 23.5t-115 -23.5t-94 -64
t-63 -95t-23 -116.5t23 -116.5t63 -95t94 -64t115 -23.5t115 23.5t94 64t63 95t23 116.5zM511 165l-63 144h-75v-143h-69v389h143q61 0 99 -33.5t38 -88.5q0 -82 -68 -112l70 -156h-75zM514 433q0 26 -16 42t-51 16h-75v-119h75q41 0 54 17.5t13 43.5z" />
    <glyph glyph-name="macron" unicode="&#xaf;" horiz-adv-x="296" 
d="M9 608v68h278v-68h-278z" />
    <glyph glyph-name="degree" unicode="&#xb0;" horiz-adv-x="461" 
d="M396 558q0 -36 -12.5 -66t-35 -52t-53 -34t-65.5 -12t-65.5 12t-52.5 34t-34.5 52t-12.5 66t12.5 66t34.5 52t52.5 34t65.5 12t65.5 -12t53 -34t35 -52t12.5 -66zM321 558q0 42 -26 67.5t-65 25.5t-64.5 -25.5t-25.5 -67.5t25.5 -67.5t64.5 -25.5t65 25.5t26 67.5z" />
    <glyph glyph-name="plusminus" unicode="&#xb1;" horiz-adv-x="569" 
d="M320 332v-187h-70v187h-185v70h185v185h70v-185h184v-70h-184zM65 0v69h439v-69h-439z" />
    <glyph glyph-name="twosuperior" unicode="&#xb2;" horiz-adv-x="412" 
d="M73 343v63l155 130q17 14 28 29t11 38q0 15 -8 25q-8 14 -22.5 19.5t-32.5 5.5q-33 0 -49.5 -19t-18.5 -51h-71q2 62 41.5 97.5t99.5 35.5q27 0 51 -7.5t41.5 -22.5t28 -37t10.5 -50q0 -22 -6 -38.5t-16.5 -30.5t-24.5 -26.5t-30 -26.5l-81 -68h168v-66h-274z" />
    <glyph glyph-name="threesuperior" unicode="&#xb3;" horiz-adv-x="414" 
d="M349 447q0 -23 -7 -39.5t-18 -29.5q-21 -23 -51.5 -32.5t-65.5 -9.5q-33 0 -62.5 11t-49.5 34q-13 15 -21.5 35t-8.5 45h69q1 -33 21 -50.5t52 -17.5q29 0 50 12t21 41q0 25 -15.5 40.5t-50.5 15.5h-28v57q17 0 27 -0.5t27 4.5q32 9 32 49q0 22 -18.5 35.5t-44.5 13.5
q-12 0 -24 -3.5t-22 -11t-17 -19.5t-7 -29h-69q0 28 9.5 48t25.5 35q20 18 46.5 27t58.5 9q35 0 63.5 -10.5t46.5 -32.5q11 -13 17.5 -29t6.5 -37q0 -24 -15 -48t-41 -30q29 -8 46 -32.5t17 -50.5z" />
    <glyph glyph-name="acute" unicode="&#xb4;" horiz-adv-x="244" 
d="M45 551l-30 47l170 123l45 -71z" />
    <glyph glyph-name="mu" unicode="&#xb5;" horiz-adv-x="590" 
d="M423 0l-7 77q-20 -44 -62.5 -66.5t-87.5 -22.5q-26 0 -50 7.5t-38 18.5v-214h-85v706h85v-320q0 -57 24 -89t84 -32q26 0 46.5 10.5t37.5 27.5q24 25 33 63t9 77v263h85v-506h-74z" />
    <glyph glyph-name="paragraph" unicode="&#xb6;" horiz-adv-x="657" 
d="M513 640v-765h-73v765h-112v-765h-75v457q-39 0 -73 15t-59.5 40.5t-40.5 60t-15 73.5t15 73.5t40.5 60t59.5 40t73 14.5h329v-69h-69z" />
    <glyph glyph-name="periodcentered" unicode="&#xb7;" horiz-adv-x="298" 
d="M90 247v119h118v-119h-118z" />
    <glyph glyph-name="cedilla" unicode="&#xb8;" horiz-adv-x="174" 
d="M96 -235l-88 41l79 135h78z" />
    <glyph glyph-name="onesuperior" unicode="&#xb9;" horiz-adv-x="310" 
d="M147 345v281l-92 -63v79l97 67h66v-364h-71z" />
    <glyph glyph-name="ordmasculine" unicode="&#xba;" horiz-adv-x="484" 
d="M413 505q0 -46 -11 -86.5t-43 -72.5q-21 -21 -50.5 -33.5t-66.5 -12.5t-66 12.5t-50 33.5q-32 32 -43.5 72.5t-11.5 86.5t11.5 86t43.5 72q21 21 50 33.5t66 12.5t66.5 -12.5t50.5 -33.5q32 -32 43 -72t11 -86zM343 505q0 34 -7 65.5t-27 52.5q-24 26 -67 26
q-23 0 -39 -7t-27 -19q-20 -21 -27 -52.5t-7 -65.5t7 -66t27 -53q11 -12 27 -19t39 -7q43 0 67 26q20 21 27 53t7 66z" />
    <glyph glyph-name="guillemotright" unicode="&#xbb;" horiz-adv-x="550" 
d="M341 68l-54 40l112 191l-111 191l53 38l164 -230zM109 68l-54 40l112 191l-111 191l53 38l164 -230z" />
    <glyph glyph-name="onequarter" unicode="&#xbc;" horiz-adv-x="860" 
d="M736 75v-75h-69v75h-178v69l143 225h81l-148 -235h102v78h69v-78h59v-59h-59zM194 -21l-54 41l515 704l55 -39zM176 345v281l-92 -63v79l97 67h66v-364h-71z" />
    <glyph glyph-name="onehalf" unicode="&#xbd;" horiz-adv-x="909" 
d="M530 -1v63l155 130q17 14 28 29t11 38q0 8 -2.5 14t-5.5 11q-8 13 -22.5 19t-32.5 6q-33 0 -50 -19t-18 -51h-71q2 63 41 98t100 35q27 0 51 -7.5t41.5 -22.5t28 -37t10.5 -50q0 -22 -6 -38.5t-16.5 -30.5t-24.5 -26.5t-30 -26.5l-81 -68h168v-66h-274zM189 -21l-54 41
l515 704l55 -39zM171 345v281l-92 -63v79l97 67h66v-364h-71z" />
    <glyph glyph-name="threequarters" unicode="&#xbe;" horiz-adv-x="902" 
d="M778 75v-75h-69v75h-178v69l143 225h81l-148 -235h102v78h69v-78h59v-59h-59zM236 -21l-54 41l515 704l55 -39zM349 447q0 -23 -7 -39.5t-18 -29.5q-21 -23 -51.5 -32.5t-65.5 -9.5q-33 0 -62.5 11t-49.5 34q-13 15 -21.5 35t-8.5 45h69q1 -33 21 -50.5t52 -17.5
q29 0 50 12t21 41q0 25 -15.5 40.5t-50.5 15.5h-28v57q17 0 27 -0.5t27 4.5q32 9 32 49q0 22 -18.5 35.5t-44.5 13.5q-12 0 -24 -3.5t-22 -11t-17 -19.5t-7 -29h-69q0 28 9.5 48t25.5 35q20 18 46.5 27t58.5 9q35 0 63.5 -10.5t46.5 -32.5q11 -13 17.5 -29t6.5 -37
q0 -24 -15 -48t-41 -30q29 -8 46 -32.5t17 -50.5z" />
    <glyph glyph-name="questiondown" unicode="&#xbf;" horiz-adv-x="504" 
d="M198 397v110h106v-110h-106zM464 2q0 -42 -14.5 -82t-42.5 -70.5t-70 -49t-97 -18.5q-42 0 -80.5 13t-67 37.5t-45.5 59.5t-17 80q0 60 28.5 103t79.5 81q24 17 38 32t21.5 31t9.5 33.5t2 40.5v25h82v-28q0 -40 -6.5 -68t-20 -50.5t-34.5 -42t-51 -42.5t-45.5 -49.5
t-15.5 -66.5q0 -44 30 -76q17 -17 41 -26.5t51 -9.5q33 0 58 11.5t42 31t25.5 45.5t8.5 55h90v0z" />
    <glyph glyph-name="Agrave" unicode="&#xc0;" horiz-adv-x="621" 
d="M8 0zM521 0l-58 168h-308l-57 -168h-90l250 709h104l251 -709h-92zM308 620l-125 -368h251zM376 755l-185 99l45 71l171 -123z" />
    <glyph glyph-name="Aacute" unicode="&#xc1;" horiz-adv-x="621" 
d="M8 0zM521 0l-58 168h-308l-57 -168h-90l250 709h104l251 -709h-92zM308 620l-125 -368h251zM222 754l-30 47l170 123l45 -71z" />
    <glyph glyph-name="Acircumflex" unicode="&#xc2;" horiz-adv-x="621" 
d="M8 0zM521 0l-58 168h-308l-57 -168h-90l250 709h104l251 -709h-92zM308 620l-125 -368h251zM412 753l-108 115l-107 -115l-45 45l125 131h55l125 -131z" />
    <glyph glyph-name="Atilde" unicode="&#xc3;" horiz-adv-x="621" 
d="M8 0zM521 0l-58 168h-308l-57 -168h-90l250 709h104l251 -709h-92zM308 620l-125 -368h251zM466 835q-17 -21 -41.5 -37.5t-59.5 -16.5q-23 0 -40 6.5t-32 14.5q-14 8 -28 14.5t-31 6.5q-20 0 -34 -7t-28 -21l-39 42q20 22 43.5 38t58.5 16q21 0 37.5 -7t31.5 -15t30 -15
t32 -7q20 0 36 8.5t27 21.5l37 -42v0z" />
    <glyph glyph-name="Adieresis" unicode="&#xc4;" horiz-adv-x="621" 
d="M8 0zM521 0l-58 168h-308l-57 -168h-90l250 709h104l251 -709h-92zM308 620l-125 -368h251zM350 789v92h92v-92h-92zM174 789v92h92v-92h-92z" />
    <glyph glyph-name="Aring" unicode="&#xc5;" horiz-adv-x="621" 
d="M521 0l-58 168h-308l-57 -168h-90l236 669q-27 16 -41.5 43.5t-14.5 57.5q0 23 8 44t24 37.5t38.5 26.5t50.5 10q29 0 51.5 -10t38 -26.5t24 -37.5t8.5 -44q0 -30 -14.5 -56.5t-40.5 -43.5l237 -670h-92zM369 770q0 25 -16 43.5t-44 18.5t-44 -18.5t-16 -43.5t16 -43
t44 -18t44 18t16 43zM308 620l-125 -368h251z" />
    <glyph glyph-name="AE" unicode="&#xc6;" horiz-adv-x="914" 
d="M435 0v189h-254l-83 -189h-98l320 709h543v-83h-338v-205h289v-84h-289v-253h338v-84h-428zM435 629h-60l-157 -356h217v356z" />
    <glyph glyph-name="Ccedilla" unicode="&#xc7;" horiz-adv-x="634" 
d="M53 0zM594 226q-2 -50 -20.5 -91t-49.5 -73q-32 -32 -82 -54t-108 -22q-54 0 -104 19t-88 57q-29 28 -46.5 61.5t-27 70.5t-12.5 77.5t-3 82.5t3 82.5t12.5 77.5t27 70.5t46.5 61.5q38 38 88 57t104 19q58 0 107.5 -20.5t81.5 -52.5q31 -32 49.5 -72t20.5 -90h-92
q-1 29 -11.5 54t-27.5 45q-21 23 -54 37.5t-74 14.5q-36 0 -69.5 -14t-59.5 -40q-22 -22 -34 -50.5t-18 -59t-7 -61.5t-1 -59t1 -59t7 -61.5t18 -58.5t34 -51q26 -26 59.5 -40t69.5 -14q41 0 74.5 15.5t54.5 38.5q17 20 27.5 46.5t11.5 55.5h92v0zM322 -224l-88 41l79 135
h78z" />
    <glyph glyph-name="Egrave" unicode="&#xc8;" horiz-adv-x="625" 
d="M100 0zM100 0v709h474v-82h-385v-216h338v-84h-338v-245h385v-82h-474zM410 760l-185 99l45 71l171 -123z" />
    <glyph glyph-name="Eacute" unicode="&#xc9;" horiz-adv-x="625" 
d="M100 0zM100 0v709h474v-82h-385v-216h338v-84h-338v-245h385v-82h-474zM261 754l-30 47l170 123l45 -71z" />
    <glyph glyph-name="Ecircumflex" unicode="&#xca;" horiz-adv-x="625" 
d="M100 0zM100 0v709h474v-82h-385v-216h338v-84h-338v-245h385v-82h-474zM444 758l-108 115l-107 -115l-45 45l125 131h55l125 -131z" />
    <glyph glyph-name="Edieresis" unicode="&#xcb;" horiz-adv-x="625" 
d="M100 0zM100 0v709h474v-82h-385v-216h338v-84h-338v-245h385v-82h-474zM385 789v92h92v-92h-92zM209 789v92h92v-92h-92z" />
    <glyph glyph-name="Igrave" unicode="&#xcc;" horiz-adv-x="291" 
d="M100 0v709h91v-709h-91zM221 755l-185 99l45 71l171 -123z" />
    <glyph glyph-name="Iacute" unicode="&#xcd;" horiz-adv-x="291" 
d="M41 0zM100 0v709h91v-709h-91zM71 754l-30 47l170 123l45 -71z" />
    <glyph glyph-name="Icircumflex" unicode="&#xce;" horiz-adv-x="291" 
d="M100 0v709h91v-709h-91zM253 753l-108 115l-107 -115l-45 45l125 131h55l125 -131z" />
    <glyph glyph-name="Idieresis" unicode="&#xcf;" horiz-adv-x="291" 
d="M12 0zM100 0v709h91v-709h-91zM188 789v92h92v-92h-92zM12 789v92h92v-92h-92z" />
    <glyph glyph-name="Eth" unicode="&#xd0;" horiz-adv-x="690" 
d="M637 355q0 -38 -3.5 -77t-13 -75.5t-27.5 -70t-47 -61.5q-38 -36 -86 -53.5t-100 -17.5h-247v335h-73v66h73v308h247q52 0 100 -18t86 -54q29 -28 47 -61t28 -69.5t13 -75t3 -76.5zM547 355q0 29 -1.5 59t-8 59.5t-18.5 56t-33 48.5q-25 25 -58 37t-68 12h-158v-226h146
v-66h-146v-253h158q35 0 68 12t58 37q21 21 33 48t18.5 56.5t8 60.5t1.5 59z" />
    <glyph glyph-name="Ntilde" unicode="&#xd1;" horiz-adv-x="734" 
d="M100 0zM534 0l-348 570v-570h-86v709h100l348 -572v572h86v-709h-100zM526 827q-17 -21 -41.5 -37.5t-59.5 -16.5q-23 0 -40 6.5t-32 14.5q-14 8 -28 14.5t-31 6.5q-20 0 -34 -7t-28 -21l-39 42q20 22 43.5 38t58.5 16q21 0 37.5 -7t31.5 -15t30 -15t32 -7q20 0 36 8.5
t27 21.5l37 -42v0z" />
    <glyph glyph-name="Ograve" unicode="&#xd2;" horiz-adv-x="670" 
d="M53 0zM617 354q0 -42 -3.5 -82.5t-13 -77.5t-27.5 -70.5t-47 -61.5q-38 -38 -87.5 -57t-103.5 -19t-103.5 19t-87.5 57q-29 28 -47 61.5t-27.5 70.5t-13 77.5t-3.5 82.5t3.5 82.5t13 77.5t27.5 70.5t47 61.5q38 38 87.5 57t103.5 19t103.5 -19t87.5 -57q29 -28 47 -61.5
t27.5 -70.5t13 -77.5t3.5 -82.5zM525 354q0 28 -1.5 59t-7.5 61.5t-18 59t-34 50.5q-26 26 -59.5 39.5t-69.5 13.5t-69.5 -13.5t-59.5 -39.5q-22 -22 -34 -50.5t-18 -59t-7.5 -61.5t-1.5 -59t1.5 -59t7.5 -61.5t18 -58.5t34 -51q26 -26 59.5 -39.5t69.5 -13.5t69.5 13.5
t59.5 39.5q22 23 34 51t18 58.5t7.5 61.5t1.5 59zM410 760l-185 99l45 71l171 -123z" />
    <glyph glyph-name="Oacute" unicode="&#xd3;" horiz-adv-x="670" 
d="M53 0zM617 354q0 -42 -3.5 -82.5t-13 -77.5t-27.5 -70.5t-47 -61.5q-38 -38 -87.5 -57t-103.5 -19t-103.5 19t-87.5 57q-29 28 -47 61.5t-27.5 70.5t-13 77.5t-3.5 82.5t3.5 82.5t13 77.5t27.5 70.5t47 61.5q38 38 87.5 57t103.5 19t103.5 -19t87.5 -57q29 -28 47 -61.5
t27.5 -70.5t13 -77.5t3.5 -82.5zM525 354q0 28 -1.5 59t-7.5 61.5t-18 59t-34 50.5q-26 26 -59.5 39.5t-69.5 13.5t-69.5 -13.5t-59.5 -39.5q-22 -22 -34 -50.5t-18 -59t-7.5 -61.5t-1.5 -59t1.5 -59t7.5 -61.5t18 -58.5t34 -51q26 -26 59.5 -39.5t69.5 -13.5t69.5 13.5
t59.5 39.5q22 23 34 51t18 58.5t7.5 61.5t1.5 59zM257 759l-30 47l170 123l45 -71z" />
    <glyph glyph-name="Ocircumflex" unicode="&#xd4;" horiz-adv-x="670" 
d="M53 0zM617 354q0 -42 -3.5 -82.5t-13 -77.5t-27.5 -70.5t-47 -61.5q-38 -38 -87.5 -57t-103.5 -19t-103.5 19t-87.5 57q-29 28 -47 61.5t-27.5 70.5t-13 77.5t-3.5 82.5t3.5 82.5t13 77.5t27.5 70.5t47 61.5q38 38 87.5 57t103.5 19t103.5 -19t87.5 -57q29 -28 47 -61.5
t27.5 -70.5t13 -77.5t3.5 -82.5zM525 354q0 28 -1.5 59t-7.5 61.5t-18 59t-34 50.5q-26 26 -59.5 39.5t-69.5 13.5t-69.5 -13.5t-59.5 -39.5q-22 -22 -34 -50.5t-18 -59t-7.5 -61.5t-1.5 -59t1.5 -59t7.5 -61.5t18 -58.5t34 -51q26 -26 59.5 -39.5t69.5 -13.5t69.5 13.5
t59.5 39.5q22 23 34 51t18 58.5t7.5 61.5t1.5 59zM447 753l-108 115l-107 -115l-45 45l125 131h55l125 -131z" />
    <glyph glyph-name="Otilde" unicode="&#xd5;" horiz-adv-x="670" 
d="M53 0zM617 354q0 -42 -3.5 -82.5t-13 -77.5t-27.5 -70.5t-47 -61.5q-38 -38 -87.5 -57t-103.5 -19t-103.5 19t-87.5 57q-29 28 -47 61.5t-27.5 70.5t-13 77.5t-3.5 82.5t3.5 82.5t13 77.5t27.5 70.5t47 61.5q38 38 87.5 57t103.5 19t103.5 -19t87.5 -57q29 -28 47 -61.5
t27.5 -70.5t13 -77.5t3.5 -82.5zM525 354q0 28 -1.5 59t-7.5 61.5t-18 59t-34 50.5q-26 26 -59.5 39.5t-69.5 13.5t-69.5 -13.5t-59.5 -39.5q-22 -22 -34 -50.5t-18 -59t-7.5 -61.5t-1.5 -59t1.5 -59t7.5 -61.5t18 -58.5t34 -51q26 -26 59.5 -39.5t69.5 -13.5t69.5 13.5
t59.5 39.5q22 23 34 51t18 58.5t7.5 61.5t1.5 59zM502 834q-17 -21 -41.5 -37.5t-59.5 -16.5q-23 0 -40 6.5t-32 14.5q-14 8 -28 14.5t-31 6.5q-20 0 -34 -7t-28 -21l-39 42q20 22 43.5 38t58.5 16q21 0 37.5 -7t31.5 -15t30 -15t32 -7q20 0 36 8.5t27 21.5l37 -42v0z" />
    <glyph glyph-name="Odieresis" unicode="&#xd6;" horiz-adv-x="670" 
d="M53 0zM617 354q0 -42 -3.5 -82.5t-13 -77.5t-27.5 -70.5t-47 -61.5q-38 -38 -87.5 -57t-103.5 -19t-103.5 19t-87.5 57q-29 28 -47 61.5t-27.5 70.5t-13 77.5t-3.5 82.5t3.5 82.5t13 77.5t27.5 70.5t47 61.5q38 38 87.5 57t103.5 19t103.5 -19t87.5 -57q29 -28 47 -61.5
t27.5 -70.5t13 -77.5t3.5 -82.5zM525 354q0 28 -1.5 59t-7.5 61.5t-18 59t-34 50.5q-26 26 -59.5 39.5t-69.5 13.5t-69.5 -13.5t-59.5 -39.5q-22 -22 -34 -50.5t-18 -59t-7.5 -61.5t-1.5 -59t1.5 -59t7.5 -61.5t18 -58.5t34 -51q26 -26 59.5 -39.5t69.5 -13.5t69.5 13.5
t59.5 39.5q22 23 34 51t18 58.5t7.5 61.5t1.5 59zM380 791v92h92v-92h-92zM204 791v92h92v-92h-92z" />
    <glyph glyph-name="multiply" unicode="&#xd7;" horiz-adv-x="682" 
d="M563 22l-222 222l-222 -222l-54 54l222 222l-222 222l54 54l221 -222l223 222l54 -54l-223 -222l223 -222z" />
    <glyph glyph-name="Oslash" unicode="&#xd8;" horiz-adv-x="670" 
d="M617 354q0 -42 -3.5 -82.5t-13 -77.5t-27.5 -70.5t-47 -61.5q-38 -38 -87.5 -57t-103.5 -19q-68 0 -127 30l-39 -85l-56 26l43 94q-3 3 -6 5.5t-6 5.5q-29 28 -47 61.5t-27.5 70.5t-13 77.5t-3.5 82.5t3.5 82.5t13 77.5t27.5 70.5t47 61.5q38 38 87.5 57t103.5 19
q30 0 59.5 -6t56.5 -19l32 71l55 -25l-35 -77q12 -9 23 -20q29 -28 47 -61.5t27.5 -70.5t13 -77.5t3.5 -82.5zM525 354q0 27 -1.5 58t-7.5 61.5t-18 59t-33 50.5l-221 -488q41 -24 91 -24q36 0 69.5 13.5t59.5 39.5q22 23 34 51t18 58.5t7.5 61.5t1.5 59zM415 619
q-37 18 -80 18q-36 0 -69.5 -13.5t-59.5 -39.5q-22 -22 -34 -50.5t-18 -59t-7.5 -61.5t-1.5 -59q0 -26 1 -54.5t6 -57t15 -55.5t28 -50l220 482v0z" />
    <glyph glyph-name="Ugrave" unicode="&#xd9;" horiz-adv-x="678" 
d="M80 0zM598 260q0 -66 -18 -117t-52 -85.5t-81.5 -52.5t-107.5 -18t-107.5 18t-81.5 52.5t-52 85.5t-18 117v449h89v-451q0 -42 9.5 -77t29.5 -59.5t52.5 -38t78.5 -13.5t78.5 13.5t52.5 38t29.5 59.5t9.5 77v451h89v-449v0zM402 755l-185 99l45 71l171 -123z" />
    <glyph glyph-name="Uacute" unicode="&#xda;" horiz-adv-x="678" 
d="M80 0zM598 260q0 -66 -18 -117t-52 -85.5t-81.5 -52.5t-107.5 -18t-107.5 18t-81.5 52.5t-52 85.5t-18 117v449h89v-451q0 -42 9.5 -77t29.5 -59.5t52.5 -38t78.5 -13.5t78.5 13.5t52.5 38t29.5 59.5t9.5 77v451h89v-449v0zM269 754l-30 47l170 123l45 -71z" />
    <glyph glyph-name="Ucircumflex" unicode="&#xdb;" horiz-adv-x="678" 
d="M80 0zM598 260q0 -66 -18 -117t-52 -85.5t-81.5 -52.5t-107.5 -18t-107.5 18t-81.5 52.5t-52 85.5t-18 117v449h89v-451q0 -42 9.5 -77t29.5 -59.5t52.5 -38t78.5 -13.5t78.5 13.5t52.5 38t29.5 59.5t9.5 77v451h89v-449v0zM457 753l-108 115l-107 -115l-45 45l125 131
h55l125 -131z" />
    <glyph glyph-name="Udieresis" unicode="&#xdc;" horiz-adv-x="678" 
d="M80 0zM598 260q0 -66 -18 -117t-52 -85.5t-81.5 -52.5t-107.5 -18t-107.5 18t-81.5 52.5t-52 85.5t-18 117v449h89v-451q0 -42 9.5 -77t29.5 -59.5t52.5 -38t78.5 -13.5t78.5 13.5t52.5 38t29.5 59.5t9.5 77v451h89v-449v0zM392 790v92h92v-92h-92zM216 790v92h92v-92
h-92z" />
    <glyph glyph-name="Yacute" unicode="&#xdd;" horiz-adv-x="566" 
d="M211 749l-29 48l170 123l45 -73zM328 288v-288h-90v288l-238 421h100l186 -337l185 337h95z" />
    <glyph glyph-name="Thorn" unicode="&#xde;" horiz-adv-x="607" 
d="M577 363q0 -102 -59 -161q-29 -29 -71.5 -44t-101.5 -15h-155v-143h-90v710h90v-133h154q63 0 106.5 -16.5t72.5 -47.5q26 -28 40 -65.5t14 -84.5zM485 363q0 63 -34 98t-109 35h-152v-272h153q78 0 110 35t32 104z" />
    <glyph glyph-name="germandbls" unicode="&#xdf;" horiz-adv-x="608" 
d="M563 208q0 -51 -16.5 -90.5t-46.5 -67t-70.5 -42t-88.5 -14.5q-21 0 -42.5 1.5t-41.5 6.5v71q17 -3 33.5 -4t33.5 -1q32 0 59.5 8t48 25.5t32 44t11.5 62.5q0 41 -12.5 68.5t-34 45t-51 25t-62.5 7.5h-28v74h28q23 0 43.5 9t36 25.5t24.5 38.5t9 47q0 50 -28.5 81
t-84.5 31q-33 0 -55.5 -12t-36.5 -33t-20.5 -50t-6.5 -62v-503h-86v430h-85v76h86q0 107 53.5 166.5t150.5 59.5q46 0 83 -13.5t63 -37.5t40 -58t14 -75q0 -55 -30 -97.5t-79 -55.5q36 -4 65 -21t49.5 -42t31.5 -57t11 -67z" />
    <glyph glyph-name="agrave" unicode="&#xe0;" horiz-adv-x="559" 
d="M517 5q-14 -7 -27 -9.5t-29 -2.5q-34 0 -53.5 22.5t-19.5 54.5h-2q-22 -38 -65.5 -60.5t-97.5 -22.5q-43 0 -76 13.5t-54.5 35.5t-32.5 50t-11 57q0 24 8.5 51t29.5 49.5t55.5 38.5t86.5 19l154 9v37q0 19 -4.5 40t-21.5 37q-13 12 -32.5 19t-50.5 7q-35 0 -57 -8.5
t-35 -21.5q-25 -25 -25 -61h-83q1 35 12.5 60.5t31.5 45.5q26 27 67.5 40.5t88.5 13.5q74 0 117 -27.5t61 -69.5q15 -34 15 -78v-245q0 -20 7.5 -27t20.5 -7q6 0 14 2q4 1 8 1v-63v0zM383 244l-136 -8q-19 -1 -39 -6.5t-36 -16t-26 -27.5t-10 -41q0 -34 23 -60.5t77 -26.5
q29 0 56.5 10t47.5 31q23 23 33 53t10 62v30zM170 654l45 71l170 -124l-30 -47z" />
    <glyph glyph-name="aacute" unicode="&#xe1;" horiz-adv-x="559" 
d="M49 0zM517 5q-14 -7 -27 -9.5t-29 -2.5q-34 0 -53.5 22.5t-19.5 54.5h-2q-22 -38 -65.5 -60.5t-97.5 -22.5q-43 0 -76 13.5t-54.5 35.5t-32.5 50t-11 57q0 24 8.5 51t29.5 49.5t55.5 38.5t86.5 19l154 9v37q0 19 -4.5 40t-21.5 37q-13 12 -32.5 19t-50.5 7
q-35 0 -57 -8.5t-35 -21.5q-25 -25 -25 -61h-83q1 35 12.5 60.5t31.5 45.5q26 27 67.5 40.5t88.5 13.5q74 0 117 -27.5t61 -69.5q15 -34 15 -78v-245q0 -20 7.5 -27t20.5 -7q6 0 14 2q4 1 8 1v-63v0zM383 244l-136 -8q-19 -1 -39 -6.5t-36 -16t-26 -27.5t-10 -41
q0 -34 23 -60.5t77 -26.5q29 0 56.5 10t47.5 31q23 23 33 53t10 62v30zM194 555l-30 47l170 123l45 -71z" />
    <glyph glyph-name="acircumflex" unicode="&#xe2;" horiz-adv-x="559" 
d="M49 0zM517 5q-14 -7 -27 -9.5t-29 -2.5q-34 0 -53.5 22.5t-19.5 54.5h-2q-22 -38 -65.5 -60.5t-97.5 -22.5q-43 0 -76 13.5t-54.5 35.5t-32.5 50t-11 57q0 24 8.5 51t29.5 49.5t55.5 38.5t86.5 19l154 9v37q0 19 -4.5 40t-21.5 37q-13 12 -32.5 19t-50.5 7
q-35 0 -57 -8.5t-35 -21.5q-25 -25 -25 -61h-83q1 35 12.5 60.5t31.5 45.5q26 27 67.5 40.5t88.5 13.5q74 0 117 -27.5t61 -69.5q15 -34 15 -78v-245q0 -20 7.5 -27t20.5 -7q6 0 14 2q4 1 8 1v-63v0zM383 244l-136 -8q-19 -1 -39 -6.5t-36 -16t-26 -27.5t-10 -41
q0 -34 23 -60.5t77 -26.5q29 0 56.5 10t47.5 31q23 23 33 53t10 62v30zM381 557l-108 115l-107 -115l-45 45l125 131h55l125 -131z" />
    <glyph glyph-name="atilde" unicode="&#xe3;" horiz-adv-x="559" 
d="M49 0zM517 5q-14 -7 -27 -9.5t-29 -2.5q-34 0 -53.5 22.5t-19.5 54.5h-2q-22 -38 -65.5 -60.5t-97.5 -22.5q-43 0 -76 13.5t-54.5 35.5t-32.5 50t-11 57q0 24 8.5 51t29.5 49.5t55.5 38.5t86.5 19l154 9v37q0 19 -4.5 40t-21.5 37q-13 12 -32.5 19t-50.5 7
q-35 0 -57 -8.5t-35 -21.5q-25 -25 -25 -61h-83q1 35 12.5 60.5t31.5 45.5q26 27 67.5 40.5t88.5 13.5q74 0 117 -27.5t61 -69.5q15 -34 15 -78v-245q0 -20 7.5 -27t20.5 -7q6 0 14 2q4 1 8 1v-63v0zM383 244l-136 -8q-19 -1 -39 -6.5t-36 -16t-26 -27.5t-10 -41
q0 -34 23 -60.5t77 -26.5q29 0 56.5 10t47.5 31q23 23 33 53t10 62v30zM443 647q-17 -21 -41.5 -37.5t-59.5 -16.5q-23 0 -40 6.5t-32 14.5q-14 8 -28 14.5t-31 6.5q-20 0 -34 -7t-28 -21l-39 42q20 22 43.5 38t58.5 16q21 0 37.5 -7t31.5 -15t30 -15t32 -7q20 0 36 8.5
t27 21.5l37 -42v0z" />
    <glyph glyph-name="adieresis" unicode="&#xe4;" horiz-adv-x="559" 
d="M49 0zM517 5q-14 -7 -27 -9.5t-29 -2.5q-34 0 -53.5 22.5t-19.5 54.5h-2q-22 -38 -65.5 -60.5t-97.5 -22.5q-43 0 -76 13.5t-54.5 35.5t-32.5 50t-11 57q0 24 8.5 51t29.5 49.5t55.5 38.5t86.5 19l154 9v37q0 19 -4.5 40t-21.5 37q-13 12 -32.5 19t-50.5 7
q-35 0 -57 -8.5t-35 -21.5q-25 -25 -25 -61h-83q1 35 12.5 60.5t31.5 45.5q26 27 67.5 40.5t88.5 13.5q74 0 117 -27.5t61 -69.5q15 -34 15 -78v-245q0 -20 7.5 -27t20.5 -7q6 0 14 2q4 1 8 1v-63v0zM383 244l-136 -8q-19 -1 -39 -6.5t-36 -16t-26 -27.5t-10 -41
q0 -34 23 -60.5t77 -26.5q29 0 56.5 10t47.5 31q23 23 33 53t10 62v30zM321 602v92h92v-92h-92zM145 602v92h92v-92h-92z" />
    <glyph glyph-name="aring" unicode="&#xe5;" horiz-adv-x="559" 
d="M49 0zM517 5q-14 -7 -27 -9.5t-29 -2.5q-34 0 -53.5 22.5t-19.5 54.5h-2q-22 -38 -65.5 -60.5t-97.5 -22.5q-43 0 -76 13.5t-54.5 35.5t-32.5 50t-11 57q0 24 8.5 51t29.5 49.5t55.5 38.5t86.5 19l154 9v37q0 19 -4.5 40t-21.5 37q-13 12 -32.5 19t-50.5 7
q-35 0 -57 -8.5t-35 -21.5q-25 -25 -25 -61h-83q1 35 12.5 60.5t31.5 45.5q26 27 67.5 40.5t88.5 13.5q74 0 117 -27.5t61 -69.5q15 -34 15 -78v-245q0 -20 7.5 -27t20.5 -7q6 0 14 2q4 1 8 1v-63v0zM383 244l-136 -8q-19 -1 -39 -6.5t-36 -16t-26 -27.5t-10 -41
q0 -34 23 -60.5t77 -26.5q29 0 56.5 10t47.5 31q23 23 33 53t10 62v30zM390 671q0 -21 -7.5 -40t-21.5 -34t-34.5 -24t-46.5 -9t-46.5 9t-34.5 24t-21.5 34t-7.5 40t7.5 40t21.5 34t34.5 24t46.5 9t46.5 -9t34.5 -24t21.5 -34t7.5 -40zM334 671q0 23 -14.5 39.5t-39.5 16.5
t-40 -16.5t-15 -39.5t15 -39t40 -16t39.5 16t14.5 39z" />
    <glyph glyph-name="ae" unicode="&#xe6;" horiz-adv-x="847" 
d="M455 229q0 -33 6.5 -64t22.5 -55t42.5 -39t64.5 -15q37 0 70 22t44 70h84q-5 -38 -20.5 -67t-44.5 -53q-28 -23 -57.5 -33t-74.5 -10q-60 0 -108 24.5t-71 72.5q-25 -44 -70 -70t-112 -26q-44 0 -79 13.5t-60 38.5q-20 20 -31.5 46.5t-11.5 60.5q0 35 13 62.5t35.5 47
t52 30.5t61.5 11l162 2v54q0 51 -29.5 74.5t-77.5 23.5t-79.5 -21.5t-34.5 -69.5h-83q2 44 19.5 74.5t45 50t62.5 28.5t71 9q22 0 45 -4.5t45 -13.5t40.5 -23t31.5 -34q25 35 63 54t95 19q65 0 104.5 -23.5t66.5 -65.5q23 -35 31 -76.5t8 -97.5v-26zM711 296
q-1 35 -8.5 63.5t-24.5 49.5q-14 18 -36 29.5t-56 11.5q-29 0 -50 -10t-37 -27q-21 -22 -31.5 -52t-10.5 -65h254v0zM231 233q-39 0 -67.5 -22.5t-28.5 -64.5t27.5 -64.5t67.5 -22.5q29 0 57 8.5t48 28.5q16 16 24.5 32t12 33t4 35t0.5 38z" />
    <glyph glyph-name="ccedilla" unicode="&#xe7;" horiz-adv-x="532" 
d="M486 170q-3 -41 -18 -72t-41 -56q-27 -26 -63 -40.5t-83 -14.5q-69 0 -113.5 27.5t-71.5 67.5q-20 30 -31 72t-11 99t11 99t31 72q27 40 71.5 67.5t112.5 27.5q45 0 81.5 -14t62.5 -40q26 -25 41.5 -56.5t18.5 -73.5h-86q-3 26 -12.5 45.5t-23.5 33.5q-15 14 -36 22.5
t-46 8.5q-29 0 -50 -9.5t-38 -23.5q-30 -26 -40.5 -69t-10.5 -90t10.5 -90t40.5 -69q17 -14 38 -23.5t50 -9.5q26 0 48.5 9t37.5 25q14 14 22.5 32t11.5 43h86v0zM271 -233l-86 40l77 131h75z" />
    <glyph glyph-name="egrave" unicode="&#xe8;" horiz-adv-x="551" 
d="M500 225h-358q0 -35 13 -69.5t36 -57.5q36 -36 93 -36q30 0 54 8t40 25q11 11 18 23t12 32h83q-5 -38 -26 -71t-52 -54q-27 -18 -60 -28t-69 -10q-54 0 -96.5 20.5t-71.5 55.5q-32 37 -47.5 85.5t-15.5 102.5q0 46 9 86.5t30 75.5q27 46 76 76t115 30q49 0 87.5 -17.5
t66.5 -47.5q31 -34 48 -80.5t16 -97.5zM414 298q0 29 -8 56t-23 47q-16 21 -41 33.5t-59 12.5t-60 -13t-43 -34t-26 -47.5t-10 -54.5h270v0zM178 655l45 71l170 -123l-30 -47z" />
    <glyph glyph-name="eacute" unicode="&#xe9;" horiz-adv-x="551" 
d="M53 0zM500 225h-358q0 -35 13 -69.5t36 -57.5q36 -36 93 -36q30 0 54 8t40 25q11 11 18 23t12 32h83q-5 -38 -26 -71t-52 -54q-27 -18 -60 -28t-69 -10q-54 0 -96.5 20.5t-71.5 55.5q-32 37 -47.5 85.5t-15.5 102.5q0 46 9 86.5t30 75.5q27 46 76 76t115 30
q49 0 87.5 -17.5t66.5 -47.5q31 -34 48 -80.5t16 -97.5zM414 298q0 29 -8 56t-23 47q-16 21 -41 33.5t-59 12.5t-60 -13t-43 -34t-26 -47.5t-10 -54.5h270v0zM209 553l-30 47l170 123l45 -71z" />
    <glyph glyph-name="ecircumflex" unicode="&#xea;" horiz-adv-x="551" 
d="M53 0zM500 225h-358q0 -35 13 -69.5t36 -57.5q36 -36 93 -36q30 0 54 8t40 25q11 11 18 23t12 32h83q-5 -38 -26 -71t-52 -54q-27 -18 -60 -28t-69 -10q-54 0 -96.5 20.5t-71.5 55.5q-32 37 -47.5 85.5t-15.5 102.5q0 46 9 86.5t30 75.5q27 46 76 76t115 30
q49 0 87.5 -17.5t66.5 -47.5q31 -34 48 -80.5t16 -97.5zM414 298q0 29 -8 56t-23 47q-16 21 -41 33.5t-59 12.5t-60 -13t-43 -34t-26 -47.5t-10 -54.5h270v0zM391 552l-108 115l-107 -115l-45 45l125 131h55l125 -131z" />
    <glyph glyph-name="edieresis" unicode="&#xeb;" horiz-adv-x="551" 
d="M53 0zM500 225h-358q0 -35 13 -69.5t36 -57.5q36 -36 93 -36q30 0 54 8t40 25q11 11 18 23t12 32h83q-5 -38 -26 -71t-52 -54q-27 -18 -60 -28t-69 -10q-54 0 -96.5 20.5t-71.5 55.5q-32 37 -47.5 85.5t-15.5 102.5q0 46 9 86.5t30 75.5q27 46 76 76t115 30
q49 0 87.5 -17.5t66.5 -47.5q31 -34 48 -80.5t16 -97.5zM414 298q0 29 -8 56t-23 47q-16 21 -41 33.5t-59 12.5t-60 -13t-43 -34t-26 -47.5t-10 -54.5h270v0zM327 599v92h92v-92h-92zM151 599v92h92v-92h-92z" />
    <glyph glyph-name="igrave" unicode="&#xec;" horiz-adv-x="273" 
d="M92 0v506h86v-506h-86zM8 649l45 71l170 -123l-30 -47z" />
    <glyph glyph-name="iacute" unicode="&#xed;" horiz-adv-x="273" 
d="M80 0v506h86v-506h-86zM66 551l-30 47l170 123l45 -71z" />
    <glyph glyph-name="icircumflex" unicode="&#xee;" horiz-adv-x="273" 
d="M96 0v506h86v-506h-86zM245 552l-108 115l-107 -115l-45 45l125 131h55l125 -131z" />
    <glyph glyph-name="idieresis" unicode="&#xef;" horiz-adv-x="273" 
d="M93 0v506h86v-506h-86zM179 599v92h92v-92h-92zM3 599v92h92v-92h-92z" />
    <glyph glyph-name="eth" unicode="&#xf0;" horiz-adv-x="551" 
d="M497 253q0 -60 -13.5 -113t-54.5 -94q-28 -27 -67 -43t-87 -16t-86.5 16t-66.5 43q-41 41 -54.5 94t-13.5 113t13.5 113.5t54.5 93.5q28 27 66.5 43t86.5 16q6 0 13 -0.5t14 -1.5l16 -2l-43 73h-120v59h85l-45 75h89l44 -75h98v-59h-63l83 -142q27 -46 39 -91.5
t12 -101.5zM412 253q0 45 -9.5 87t-36.5 70q-16 16 -38.5 26t-52.5 10t-52 -10t-38 -26q-27 -28 -36.5 -70t-9.5 -87t9.5 -87t36.5 -70q16 -16 38 -26t52 -10t52.5 10t38.5 26q27 28 36.5 70t9.5 87z" />
    <glyph glyph-name="ntilde" unicode="&#xf1;" horiz-adv-x="585" 
d="M93 0zM417 0v321q0 57 -25.5 89t-85.5 32q-37 0 -65 -21.5t-45 -56.5q-13 -28 -15.5 -64t-2.5 -65v-235h-85v506h74l7 -76q10 22 27 38.5t38 28t44 17t44 5.5q87 0 131 -49t44 -137v-333h-85zM465 647q-17 -21 -41.5 -37.5t-59.5 -16.5q-23 0 -40 6.5t-32 14.5
q-14 8 -28 14.5t-31 6.5q-20 0 -34 -7t-28 -21l-39 42q20 22 43.5 38t58.5 16q21 0 37.5 -7t31.5 -15t30 -15t32 -7q20 0 36 8.5t27 21.5l37 -42v0z" />
    <glyph glyph-name="ograve" unicode="&#xf2;" horiz-adv-x="558" 
d="M504 253q0 -60 -15 -113t-57 -94q-28 -27 -66.5 -43t-86.5 -16t-86.5 16t-66.5 43q-42 41 -57 94t-15 113t15 113t57 94q28 27 66.5 43t86.5 16t86.5 -16t66.5 -43q42 -41 57 -94t15 -113zM417 253q0 45 -10 87t-37 70q-16 16 -38.5 26t-52.5 10t-52.5 -10t-38.5 -26
q-27 -28 -37 -70t-10 -87t10 -87t37 -70q16 -16 38.5 -26t52.5 -10t52.5 10t38.5 26q27 28 37 70t10 87zM175 653l45 71l170 -123l-30 -47z" />
    <glyph glyph-name="oacute" unicode="&#xf3;" horiz-adv-x="558" 
d="M54 0zM504 253q0 -60 -15 -113t-57 -94q-28 -27 -66.5 -43t-86.5 -16t-86.5 16t-66.5 43q-42 41 -57 94t-15 113t15 113t57 94q28 27 66.5 43t86.5 16t86.5 -16t66.5 -43q42 -41 57 -94t15 -113zM417 253q0 45 -10 87t-37 70q-16 16 -38.5 26t-52.5 10t-52.5 -10
t-38.5 -26q-27 -28 -37 -70t-10 -87t10 -87t37 -70q16 -16 38.5 -26t52.5 -10t52.5 10t38.5 26q27 28 37 70t10 87zM204 554l-30 47l170 123l45 -71z" />
    <glyph glyph-name="ocircumflex" unicode="&#xf4;" horiz-adv-x="558" 
d="M54 0zM504 253q0 -60 -15 -113t-57 -94q-28 -27 -66.5 -43t-86.5 -16t-86.5 16t-66.5 43q-42 41 -57 94t-15 113t15 113t57 94q28 27 66.5 43t86.5 16t86.5 -16t66.5 -43q42 -41 57 -94t15 -113zM417 253q0 45 -10 87t-37 70q-16 16 -38.5 26t-52.5 10t-52.5 -10
t-38.5 -26q-27 -28 -37 -70t-10 -87t10 -87t37 -70q16 -16 38.5 -26t52.5 -10t52.5 10t38.5 26q27 28 37 70t10 87zM388 555l-108 115l-107 -115l-45 45l125 131h55l125 -131z" />
    <glyph glyph-name="otilde" unicode="&#xf5;" horiz-adv-x="558" 
d="M54 0zM504 253q0 -60 -15 -113t-57 -94q-28 -27 -66.5 -43t-86.5 -16t-86.5 16t-66.5 43q-42 41 -57 94t-15 113t15 113t57 94q28 27 66.5 43t86.5 16t86.5 -16t66.5 -43q42 -41 57 -94t15 -113zM417 253q0 45 -10 87t-37 70q-16 16 -38.5 26t-52.5 10t-52.5 -10
t-38.5 -26q-27 -28 -37 -70t-10 -87t10 -87t37 -70q16 -16 38.5 -26t52.5 -10t52.5 10t38.5 26q27 28 37 70t10 87zM447 653q-17 -21 -41.5 -37.5t-59.5 -16.5q-23 0 -40 6.5t-32 14.5q-14 8 -28 14.5t-31 6.5q-20 0 -34 -7t-28 -21l-39 42q20 22 43.5 38t58.5 16
q21 0 37.5 -7t31.5 -15t30 -15t32 -7q20 0 36 8.5t27 21.5l37 -42v0z" />
    <glyph glyph-name="odieresis" unicode="&#xf6;" horiz-adv-x="558" 
d="M54 0zM504 253q0 -60 -15 -113t-57 -94q-28 -27 -66.5 -43t-86.5 -16t-86.5 16t-66.5 43q-42 41 -57 94t-15 113t15 113t57 94q28 27 66.5 43t86.5 16t86.5 -16t66.5 -43q42 -41 57 -94t15 -113zM417 253q0 45 -10 87t-37 70q-16 16 -38.5 26t-52.5 10t-52.5 -10
t-38.5 -26q-27 -28 -37 -70t-10 -87t10 -87t37 -70q16 -16 38.5 -26t52.5 -10t52.5 10t38.5 26q27 28 37 70t10 87zM330 599v92h92v-92h-92zM154 599v92h92v-92h-92z" />
    <glyph glyph-name="divide" unicode="&#xf7;" horiz-adv-x="652" 
d="M267 442v118h114v-118h-114zM75 261v78h502v-78h-502zM267 48v118h114v-118h-114z" />
    <glyph glyph-name="oslash" unicode="&#xf8;" horiz-adv-x="558" 
d="M504 253q0 -60 -15 -113t-57 -94q-28 -27 -66.5 -43t-86.5 -16q-46 0 -84 15l-36 -79l-54 25l38 83q-5 4 -9 7.5t-8 7.5q-42 41 -57 94t-15 113t15 113t57 94q28 27 66.5 43t86.5 16q22 0 41.5 -3.5t37.5 -9.5l36 79l54 -24l-37 -83q11 -7 21 -18q42 -41 57 -94t15 -113z
M417 253q0 42 -8.5 81.5t-32.5 68.5l-150 -333q25 -10 53 -10q30 0 52.5 10t38.5 26q27 28 37 70t10 87zM327 438q-22 8 -48 8q-30 0 -52.5 -10t-38.5 -26q-27 -28 -37 -70t-10 -87q0 -40 8 -78t29 -67l149 330v0z" />
    <glyph glyph-name="ugrave" unicode="&#xf9;" horiz-adv-x="582" 
d="M415 0l-7 77q-20 -44 -62.5 -66.5t-87.5 -22.5q-87 0 -130 49t-43 137v332h85v-320q0 -57 24 -89t84 -32q26 0 46.5 10.5t37.5 27.5q24 25 33 63t9 77v263h85v-506h-74zM167 652l45 71l170 -123l-30 -47z" />
    <glyph glyph-name="uacute" unicode="&#xfa;" horiz-adv-x="582" 
d="M85 0zM415 0l-7 77q-20 -44 -62.5 -66.5t-87.5 -22.5q-87 0 -130 49t-43 137v332h85v-320q0 -57 24 -89t84 -32q26 0 46.5 10.5t37.5 27.5q24 25 33 63t9 77v263h85v-506h-74zM217 553l-30 47l170 123l45 -71z" />
    <glyph glyph-name="ucircumflex" unicode="&#xfb;" horiz-adv-x="582" 
d="M85 0zM415 0l-7 77q-20 -44 -62.5 -66.5t-87.5 -22.5q-87 0 -130 49t-43 137v332h85v-320q0 -57 24 -89t84 -32q26 0 46.5 10.5t37.5 27.5q24 25 33 63t9 77v263h85v-506h-74zM396 560l-108 115l-107 -115l-45 45l125 131h55l125 -131z" />
    <glyph glyph-name="udieresis" unicode="&#xfc;" horiz-adv-x="582" 
d="M85 0zM415 0l-7 77q-20 -44 -62.5 -66.5t-87.5 -22.5q-87 0 -130 49t-43 137v332h85v-320q0 -57 24 -89t84 -32q26 0 46.5 10.5t37.5 27.5q24 25 33 63t9 77v263h85v-506h-74zM331 599v92h92v-92h-92zM155 599v92h92v-92h-92z" />
    <glyph glyph-name="yacute" unicode="&#xfd;" horiz-adv-x="498" 
d="M194 550l-32 47l172 129l47 -72zM260 -104q-18 -49 -49 -78.5t-88 -29.5q-32 0 -52 4t-25 6v74q8 -2 18 -4q8 -2 19 -3t23 -1q27 0 46 11t30 40l32 85l-202 506h96l149 -399l142 399h89z" />
    <glyph glyph-name="thorn" unicode="&#xfe;" horiz-adv-x="590" 
d="M536 252q0 -66 -19.5 -122t-57.5 -93q-25 -23 -58 -37t-78 -14q-21 0 -42 5t-40.5 14t-36 22.5t-26.5 30.5v-259h-85v923h85v-275q10 17 26.5 30.5t36 22.5t40.5 14t42 5q45 0 78 -14t58 -37q38 -37 57.5 -93.5t19.5 -122.5zM450 252q0 35 -6 70t-22 62.5t-43.5 45
t-69.5 17.5q-28 0 -46.5 -9.5t-33.5 -23.5q-32 -28 -44 -71t-12 -91t12 -90.5t44 -70.5q15 -14 33.5 -23.5t46.5 -9.5q42 0 69.5 17t43.5 45t22 62.5t6 69.5z" />
    <glyph glyph-name="ydieresis" unicode="&#xff;" horiz-adv-x="498" 
d="M12 0zM260 -104q-18 -49 -49 -78.5t-88 -29.5q-32 0 -52 4t-25 6v74q8 -2 18 -4q8 -2 19 -3t23 -1q27 0 46 11t30 40l32 85l-202 506h96l149 -399l142 399h89zM293 599v92h92v-92h-92zM117 599v92h92v-92h-92z" />
    <glyph glyph-name="dotlessi" unicode="&#x131;" horiz-adv-x="273" 
d="M94 0v506h86v-506h-86z" />
    <glyph glyph-name="Lslash" unicode="&#x141;" horiz-adv-x="565" 
d="M121 0v296l-65 -40l-33 52l98 61v340h89v-285l127 79l33 -53l-160 -99v-268h341v-83h-430z" />
    <glyph glyph-name="lslash" unicode="&#x142;" horiz-adv-x="333" 
d="M195 396v-273q0 -26 10 -39t36 -13q11 0 17.5 0.5t10.5 0.5h7v-72l-15 -3q-15 -3 -45 -3q-56 0 -81 32t-25 92v225l-57 -35l-33 52l90 56v306h85v-253l80 50l33 -53z" />
    <glyph glyph-name="OE" unicode="&#x152;" horiz-adv-x="983" 
d="M512 0v65q-29 -37 -76 -57.5t-111 -20.5q-65 0 -108.5 20t-80.5 57q-27 28 -43.5 61t-25 70t-11.5 77.5t-3 82.5t3 82.5t11.5 77t25 69.5t43.5 61q37 38 80.5 58t108.5 20q64 0 111.5 -23t75.5 -58v67h420v-83h-338v-206h289v-84h-289v-253h338v-83h-420zM507 355
q0 32 -1.5 65t-7.5 63.5t-16.5 57.5t-28.5 48q-20 23 -51 38t-77 15q-40 0 -68.5 -12.5t-48.5 -31.5q-21 -21 -34 -48.5t-20 -59.5t-9 -66.5t-2 -68.5q0 -33 2 -66t8 -63.5t17 -58t29 -48.5q20 -23 50.5 -37.5t75.5 -14.5q42 0 71.5 12.5t49.5 32.5q21 21 33 48.5t18 59.5
t8 66.5t2 68.5z" />
    <glyph glyph-name="oe" unicode="&#x153;" horiz-adv-x="889" 
d="M490 229q0 -26 3.5 -52.5t16.5 -51.5q15 -29 43.5 -48.5t73.5 -19.5q18 0 37.5 5.5t36 16.5t28.5 28t17 41h85q-5 -38 -21 -66t-45 -52q-28 -23 -60 -34t-77 -11q-59 0 -105.5 24t-73.5 70q-7 -11 -13 -19.5t-13 -15.5q-27 -28 -65 -44t-86 -16t-85.5 16.5t-64.5 44.5
q-41 42 -54.5 94t-13.5 112t13 112.5t54 94.5q27 28 65 44.5t86 16.5t86 -17t65 -45q7 -7 12.5 -14.5t11.5 -17.5l5 8q24 39 68.5 62.5t103.5 23.5q65 0 106.5 -25t68.5 -67q23 -35 31.5 -75.5t8.5 -95.5v-27h-349zM752 296q-1 35 -9.5 63t-26.5 49q-15 17 -38 29t-55 12
t-56.5 -12t-41 -33t-25.5 -49t-9 -59h261v0zM407 251q0 47 -9.5 90t-37.5 72q-15 15 -36 25t-52 10q-28 0 -47.5 -8.5t-34.5 -22.5q-31 -28 -41 -73t-10 -93q0 -45 9.5 -87.5t35.5 -71.5q15 -17 36 -27t52 -10q36 0 59 12.5t38 32.5q22 29 30 68.5t8 82.5z" />
    <glyph glyph-name="Scaron" unicode="&#x160;" horiz-adv-x="635" 
d="M348 759h-55l-125 131l45 45l108 -115l107 115l45 -45zM585 195q0 -45 -17 -78t-43 -59q-37 -36 -90.5 -53.5t-110.5 -17.5q-129 0 -203 68q-34 32 -55 75.5t-21 94.5h93q0 -32 14 -61.5t36 -50.5q24 -23 61 -33.5t75 -10.5q41 0 74.5 9t57.5 32q17 15 26.5 34.5
t9.5 48.5q0 42 -28 73t-91 41q-29 5 -56 8.5t-56 8.5q-40 6 -74.5 20t-60 37.5t-40 56t-14.5 74.5q0 40 16.5 76.5t45.5 63.5q75 70 186 70q52 0 100.5 -17t83.5 -51q65 -62 68 -152h-93q-2 26 -11 49t-24 40q-20 23 -51.5 36t-73.5 13q-38 0 -70.5 -11.5t-55.5 -37.5
q-14 -16 -21.5 -34.5t-7.5 -42.5t9 -41.5t24 -29.5t34 -19t39 -10q30 -4 59.5 -8.5t58.5 -9.5q89 -13 143 -64.5t54 -136.5z" />
    <glyph glyph-name="scaron" unicode="&#x161;" horiz-adv-x="521" 
d="M289 553h-50l-112 118l40 40l98 -103l96 103l40 -40zM468 147q0 -33 -11 -58.5t-29 -44.5q-29 -30 -72 -43.5t-93 -13.5q-48 0 -90 12.5t-74 44.5q-23 23 -36 53.5t-13 62.5h85q1 -26 12 -45.5t29 -33.5q17 -13 42 -18t49 -5q26 0 49.5 5.5t43.5 22.5q11 8 18 23t7 32
q0 29 -20 48t-59 24q-8 1 -22 3t-30 4t-32.5 4t-29.5 4q-57 9 -90.5 43.5t-33.5 92.5q0 29 12.5 55.5t29.5 43.5q25 26 63 41t86 15q51 0 93 -16t68 -48q17 -20 26.5 -43t9.5 -54h-85q-1 20 -9.5 36.5t-19.5 26.5q-30 27 -83 27q-15 0 -28 -1t-31 -9q-24 -10 -37.5 -28.5
t-13.5 -39.5q0 -32 18 -46.5t50 -19.5q21 -3 51 -6.5t71 -10.5q54 -9 91.5 -46t37.5 -94z" />
    <glyph glyph-name="Ydieresis" unicode="&#x178;" horiz-adv-x="566" 
d="M0 0zM328 288v-288h-90v288l-238 421h100l186 -337l185 337h95zM327 778v92h92v-92h-92zM151 778v92h92v-92h-92z" />
    <glyph glyph-name="florin" unicode="&#x192;" horiz-adv-x="527" 
d="M479 635q-5 1 -19 3.5t-39 2.5q-12 0 -25 -4t-24.5 -14t-21 -27t-14.5 -44l-23 -115h141v-75h-156l-67 -339q-13 -65 -54.5 -101.5t-93.5 -36.5q-29 0 -45 2.5t-30 5.5v75q5 -1 19 -3.5t39 -2.5q12 0 25 4t24.5 14t21 27t14.5 44l62 311h-102v75h117l28 143
q13 65 54.5 101.5t93.5 36.5q29 0 45 -2.5t30 -5.5v-75v0z" />
    <glyph glyph-name="circumflex" unicode="&#x2c6;" horiz-adv-x="355" 
d="M285 552l-108 115l-107 -115l-45 45l125 131h55l125 -131z" />
    <glyph glyph-name="caron" unicode="&#x2c7;" horiz-adv-x="368" 
d="M77 930l108 -115l107 115l45 -45l-125 -131h-55l-125 131z" />
    <glyph glyph-name="breve" unicode="&#x2d8;" horiz-adv-x="352" 
d="M338 720q-3 -33 -14 -61.5t-31 -49.5t-50 -33t-69 -12t-69 12t-50.5 33t-31.5 49.5t-14 61.5h68q5 -42 28.5 -67t68.5 -25t68 25t28 67h68v0z" />
    <glyph glyph-name="dotaccent" unicode="&#x2d9;" horiz-adv-x="275" 
d="M88 622v100h99v-100h-99z" />
    <glyph glyph-name="ring" unicode="&#x2da;" horiz-adv-x="220" 
d="M220 670q0 -21 -7.5 -40t-21.5 -34t-34.5 -24t-46.5 -9t-46.5 9t-34.5 24t-21.5 34t-7.5 40t7.5 40t21.5 34t34.5 24t46.5 9t46.5 -9t34.5 -24t21.5 -34t7.5 -40zM164 670q0 23 -14.5 39.5t-39.5 16.5t-40 -16.5t-15 -39.5t15 -39t40 -16t39.5 16t14.5 39z" />
    <glyph glyph-name="ogonek" unicode="&#x2db;" horiz-adv-x="174" 
d="M78 -234l-69 176h78l78 -135z" />
    <glyph glyph-name="tilde" unicode="&#x2dc;" horiz-adv-x="360" 
d="M346 647q-17 -21 -41.5 -37.5t-59.5 -16.5q-23 0 -40 6.5t-32 14.5q-14 8 -28 14.5t-31 6.5q-20 0 -34 -7t-28 -21l-39 42q20 22 43.5 38t58.5 16q21 0 37.5 -7t31.5 -15t30 -15t32 -7q20 0 36 8.5t27 21.5l37 -42v0z" />
    <glyph glyph-name="hungarumlaut" unicode="&#x2dd;" horiz-adv-x="459" 
d="M263 553l-32 47l172 129l47 -72zM50 553l-32 47l172 129l47 -72z" />
    <glyph glyph-name="Omega" unicode="&#x3a9;" horiz-adv-x="861" 
d="M796 354q0 -76 -29 -143.5t-78.5 -118t-116 -79.5t-142.5 -29t-142.5 29t-116 79.5t-78 118t-28.5 143.5q0 77 28.5 144t78 117.5t116 79.5t142.5 29t142.5 -29t116 -79.5t78.5 -117.5t29 -144zM725 354q0 62 -23 116.5t-63 95t-94 64t-115 23.5t-115 -23.5t-94 -64
t-63 -95t-23 -116.5t23 -116.5t63 -95t94 -64t115 -23.5t115 23.5t94 64t63 95t23 116.5zM592 420q0 -72 -37.5 -100.5t-97.5 -28.5h-75v-135h-69v389h144q68 0 101.5 -34.5t33.5 -90.5zM523 419q0 34 -18.5 48t-63.5 14h-60v-127h60q49 0 65.5 15t16.5 50z" />
    <glyph glyph-name="pi" unicode="&#x3c0;" horiz-adv-x="640" 
d="M570 4q-4 -2 -20 -6.5t-47 -4.5q-30 0 -51 10.5t-34 28t-18.5 40t-5.5 46.5v320h-167v-439h-84v439h-78v68h491v-68h-77v-310q0 -27 9 -44.5t37 -17.5q21 0 31 1.5t14 3.5v-67v0z" />
    <glyph glyph-name="endash" unicode="&#x2013;" horiz-adv-x="655" 
d="M70 262v79h515v-79h-515z" />
    <glyph glyph-name="emdash" unicode="&#x2014;" horiz-adv-x="1125" 
d="M70 262v79h985v-79h-985z" />
    <glyph glyph-name="quoteleft" unicode="&#x2018;" horiz-adv-x="274" 
d="M199 672q-39 -17 -51.5 -42t-12.5 -68h62v-117h-122v117q0 56 21.5 95t76.5 62l26 -47v0z" />
    <glyph glyph-name="quoteright" unicode="&#x2019;" horiz-adv-x="264" 
d="M194 588q0 -56 -21.5 -95t-76.5 -62l-26 47q39 17 51.5 42t12.5 68h-62v117h122v-117v0z" />
    <glyph glyph-name="quotesinglbase" unicode="&#x201a;" horiz-adv-x="279" 
d="M204 -2q0 -56 -21.5 -95t-76.5 -62l-26 47q39 17 51.5 42t12.5 68h-62v117h122v-117v0z" />
    <glyph glyph-name="quotedblleft" unicode="&#x201c;" horiz-adv-x="472" 
d="M402 672q-39 -17 -51.5 -42t-12.5 -68h62v-117h-122v117q0 56 21.5 95t76.5 62l26 -47v0zM204 672q-39 -17 -51.5 -42t-12.5 -68h62v-117h-122v117q0 56 21.5 95t76.5 62l26 -47v0z" />
    <glyph glyph-name="quotedblright" unicode="&#x201d;" horiz-adv-x="462" 
d="M397 586q0 -56 -21.5 -95t-76.5 -62l-26 47q39 17 51.5 42t12.5 68h-62v117h122v-117v0zM199 586q0 -56 -21.5 -95t-76.5 -62l-26 47q39 17 51.5 42t12.5 68h-62v117h122v-117v0z" />
    <glyph glyph-name="quotedblbase" unicode="&#x201e;" horiz-adv-x="492" 
d="M407 -1q0 -56 -21.5 -95t-76.5 -62l-26 47q39 17 51.5 42t12.5 68h-62v117h122v-117v0zM209 -1q0 -56 -21.5 -95t-76.5 -62l-26 47q39 17 51.5 42t12.5 68h-62v117h122v-117v0z" />
    <glyph glyph-name="dagger" unicode="&#x2020;" horiz-adv-x="566" 
d="M325 433v-558h-83v558h-187v73h187v203h83v-203h186v-73h-186z" />
    <glyph glyph-name="daggerdbl" unicode="&#x2021;" horiz-adv-x="566" 
d="M324 78v-203h-82v203h-187v73h187v282h-187v73h187v203h82v-203h187v-73h-187v-282h187v-73h-187z" />
    <glyph glyph-name="bullet" unicode="&#x2022;" horiz-adv-x="435" 
d="M345 292q0 -27 -10 -51t-27 -41.5t-40 -28t-50 -10.5t-50 10.5t-40.5 28t-27.5 41.5t-10 51t10 51t27.5 41.5t40.5 28t50 10.5t50 -10.5t40 -28t27 -41.5t10 -51z" />
    <glyph glyph-name="ellipsis" unicode="&#x2026;" horiz-adv-x="805" 
d="M613 0v115h115v-115h-115zM345 0v115h114v-115h-114zM77 0v115h114v-115h-114z" />
    <glyph glyph-name="perthousand" unicode="&#x2030;" horiz-adv-x="1175" 
d="M1125 168q0 -32 -6 -61.5t-23 -53.5q-19 -28 -50 -47t-76 -19t-75.5 19t-49.5 47q-17 24 -23 53.5t-6 61.5t6 62t23 54q19 28 49.5 47.5t75.5 19.5t76 -19.5t50 -47.5q17 -24 23 -54t6 -62zM765 168q0 -32 -6 -61.5t-23 -53.5q-19 -28 -49.5 -47t-75.5 -19t-76 19t-50 47
q-17 24 -23 53.5t-6 61.5t6 62t23 54q19 28 50 47.5t76 19.5t75.5 -19.5t49.5 -47.5q17 -24 23 -54t6 -62zM189 -21l-54 41l515 704l55 -39zM370 540q0 -32 -6.5 -61.5t-23.5 -53.5q-19 -28 -49.5 -47t-75.5 -19t-76 19t-50 47q-17 24 -23 53.5t-6 61.5t6 62t23 54
q19 28 50 47t76 19t75.5 -19t49.5 -47q17 -24 23.5 -54t6.5 -62zM1052 168q0 29 -5.5 54t-21.5 42q-9 10 -22 16.5t-33 6.5t-33 -6.5t-22 -16.5q-16 -17 -21.5 -42t-5.5 -54t5.5 -53.5t21.5 -41.5q9 -10 22 -16.5t33 -6.5t33 6.5t22 16.5q16 17 21.5 41.5t5.5 53.5zM692 168
q0 29 -5.5 54t-21.5 42q-9 10 -21.5 16.5t-32.5 6.5t-33 -6.5t-22 -16.5q-16 -17 -22 -42t-6 -54t6 -53.5t22 -41.5q9 -10 22 -16.5t33 -6.5t32.5 6.5t21.5 16.5q16 17 21.5 41.5t5.5 53.5zM297 540q0 29 -6 54t-22 42q-9 10 -21.5 16.5t-32.5 6.5t-33 -6.5t-22 -16.5
q-16 -17 -22 -42t-6 -54t6 -53.5t22 -41.5q9 -10 22 -16.5t33 -6.5t32.5 6.5t21.5 16.5q16 17 22 41.5t6 53.5z" />
    <glyph glyph-name="guilsinglleft" unicode="&#x2039;" horiz-adv-x="318" 
d="M209 68l-164 230l164 230l53 -38l-111 -191l112 -191z" />
    <glyph glyph-name="guilsinglright" unicode="&#x203a;" horiz-adv-x="318" 
d="M109 68l-54 40l112 191l-111 191l53 38l164 -230z" />
    <glyph glyph-name="fraction" unicode="&#x2044;" horiz-adv-x="588" 
d="M63 -21l-54 41l515 704l55 -39z" />
    <glyph glyph-name="Euro" unicode="&#x20ac;" horiz-adv-x="586" 
d="M571 45q-32 -25 -75.5 -41.5t-106.5 -16.5q-61 0 -109.5 21t-86.5 60t-57.5 84.5t-26.5 94.5h-79v61h74q-1 10 -1 20v39q0 10 1 20h-74v61h79q7 50 26.5 95.5t57.5 84.5t86.5 60t109.5 21q63 0 106.5 -16.5t75.5 -41.5l-33 -72q-28 22 -64 36t-85 14q-41 0 -76 -15
t-63 -46q-23 -26 -35 -56.5t-17 -63.5h280l-27 -61h-258q-1 -10 -1 -20v-40q0 -9 1 -19h230l-27 -61h-198q5 -32 17 -62.5t35 -56.5q28 -31 63 -46t76 -15q49 0 85 14t64 36l33 -72v0z" />
    <glyph glyph-name="trademark" unicode="&#x2122;" horiz-adv-x="837" 
d="M694 318v320l-106 -310h-49l-106 309v-319h-68v391h107l93 -282l93 282h104v-391h-68zM199 647v-329h-68v329h-111v62h290v-62h-111z" />
    <glyph glyph-name="partialdiff" unicode="&#x2202;" 
d="M119 0v78h148v520l-165 -121v95l170 123h81v-617h148v-78h-382z" />
    <glyph glyph-name="Delta" unicode="&#x2206;" horiz-adv-x="663" 
d="M528 260v331l-427 -427l-51 51l427 427h-331v67h452v-449h-70z" />
    <glyph glyph-name="product" unicode="&#x220f;" horiz-adv-x="812" 
d="M747 867q0 -8 -6 -14.5t-14 -6.5t-14.5 6.5t-6.5 14.5t6.5 14t14.5 6t14 -6t6 -14zM746 615q0 -9 -7 -15t-15 -6q-9 0 -14 6.5t-5 14.5t6.5 14.5t14.5 6.5t14 -6.5t6 -14.5zM492 867q0 -8 -6.5 -14.5t-14.5 -6.5t-14.5 6.5t-6.5 14.5t6.5 14t14.5 6t14.5 -6t6.5 -14z
M620 737q0 -8 -6 -14t-14 -6t-14.5 6t-6.5 14t6.5 14.5t14.5 6.5t14 -6.5t6 -14.5zM744 365q0 -8 -6.5 -14.5t-14.5 -6.5t-14.5 6.5t-6.5 14.5t6.5 14t14.5 6t14.5 -6t6.5 -14zM491 615q0 -8 -6.5 -14.5t-14.5 -6.5t-14.5 6.5t-6.5 14.5t6.5 14.5t14.5 6.5t14.5 -6.5
t6.5 -14.5zM619 486q0 -8 -6.5 -14.5t-14.5 -6.5t-14 6.5t-6 14.5t6 14.5t14 6.5t14.5 -6.5t6.5 -14.5zM237 867q0 -8 -6.5 -14.5t-14.5 -6.5t-14 6.5t-6 14.5t6 14t14 6t14.5 -6t6.5 -14zM365 737q0 -8 -6.5 -14t-14.5 -6t-14.5 6t-6.5 14t6.5 14.5t14.5 6.5t14.5 -6.5
t6.5 -14.5zM745 113q0 -8 -6.5 -14.5t-14.5 -6.5t-14.5 6.5t-6.5 14.5t6.5 14.5t14.5 6.5t14.5 -6.5t6.5 -14.5zM488 365q0 -8 -6.5 -14.5t-14.5 -6.5t-14.5 6.5t-6.5 14.5t6.5 14t14.5 6t14.5 -6t6.5 -14zM616 236q0 -8 -6 -14.5t-14 -6.5t-14.5 6.5t-6.5 14.5t6.5 14
t14.5 6t14 -6t6 -14zM236 615q0 -8 -6.5 -14.5t-14.5 -6.5t-14.5 6.5t-6.5 14.5t6.5 14.5t14.5 6.5t14.5 -6.5t6.5 -14.5zM363 486q0 -8 -6 -14.5t-14 -6.5t-14.5 6.5t-6.5 14.5t6.5 14.5t14.5 6.5t14 -6.5t6 -14.5zM110 737q0 -8 -6.5 -14t-14.5 -6t-14.5 6t-6.5 14
t6.5 14.5t14.5 6.5t14.5 -6.5t6.5 -14.5zM745 -139q0 -8 -6.5 -14.5t-14.5 -6.5t-14.5 6.5t-6.5 14.5t6.5 14.5t14.5 6.5t14.5 -6.5t6.5 -14.5zM489 113q0 -8 -6.5 -14.5t-14.5 -6.5t-14.5 6.5t-6.5 14.5t6.5 14.5t14.5 6.5t14.5 -6.5t6.5 -14.5zM617 -16q0 -8 -6 -14.5
t-14 -6.5t-14.5 6.5t-6.5 14.5t6.5 14.5t14.5 6.5t14 -6.5t6 -14.5zM233 365q0 -8 -6.5 -14.5t-14.5 -6.5t-14 6.5t-6 14.5t6 14t14 6t14.5 -6t6.5 -14zM361 236q0 -8 -6.5 -14.5t-14.5 -6.5t-14.5 6.5t-6.5 14.5t6.5 14t14.5 6t14.5 -6t6.5 -14zM109 486q0 -8 -6.5 -14.5
t-14.5 -6.5t-14.5 6.5t-6.5 14.5t6.5 14.5t14.5 6.5t14.5 -6.5t6.5 -14.5zM489 -139q0 -8 -6.5 -14.5t-14.5 -6.5t-14.5 6.5t-6.5 14.5t6.5 14.5t14.5 6.5t14.5 -6.5t6.5 -14.5zM617 -268q0 -8 -6 -14.5t-14 -6.5t-14.5 6.5t-6.5 14.5t6.5 14t14.5 6t14 -6t6 -14zM234 113
q0 -8 -6 -14.5t-14 -6.5t-14.5 6.5t-6.5 14.5t6.5 14.5t14.5 6.5t14 -6.5t6 -14.5zM362 -16q0 -8 -6.5 -14.5t-14.5 -6.5t-14.5 6.5t-6.5 14.5t6.5 14.5t14.5 6.5t14.5 -6.5t6.5 -14.5zM106 236q0 -8 -6.5 -14.5t-14.5 -6.5t-14 6.5t-6 14.5t6 14t14 6t14.5 -6t6.5 -14z
M234 -139q0 -8 -6.5 -14.5t-14.5 -6.5t-14 6.5t-6 14.5t6 14.5t14 6.5t14.5 -6.5t6.5 -14.5zM362 -268q0 -8 -6.5 -14.5t-14.5 -6.5t-14.5 6.5t-6.5 14.5t6.5 14t14.5 6t14.5 -6t6.5 -14zM107 -16q0 -8 -6.5 -14.5t-14.5 -6.5t-14 6.5t-6 14.5t6 14.5t14 6.5t14.5 -6.5
t6.5 -14.5zM107 -268q0 -8 -6.5 -14.5t-14.5 -6.5t-14.5 6.5t-6.5 14.5t6.5 14t14.5 6t14.5 -6t6.5 -14z" />
    <glyph glyph-name="summation" unicode="&#x2211;" horiz-adv-x="928" 
d="M76 -73v221h47v-175h683v175h46v-221h-776z" />
    <glyph glyph-name="minus" unicode="&#x2212;" horiz-adv-x="645" 
d="M70 262v79h515v-79h-515z" />
    <glyph glyph-name="radical" unicode="&#x221a;" horiz-adv-x="690" 
d="M580 766l-259 -774h-77l-179 512h91l127 -385l230 713h177v-66h-110z" />
    <glyph glyph-name="infinity" unicode="&#x221e;" horiz-adv-x="721" 
d="M542 328v-252h110v-76h-331q-57 0 -98.5 15.5t-70.5 43.5q-57 55 -57 141q0 27 9 52t24.5 46.5t37 38.5t46.5 27q-45 20 -75 60.5t-30 93.5q0 47 14 79.5t43 58.5q27 25 65 39.5t89 14.5q23 0 45.5 -2t40.5 -7v-77q-32 7 -80 7q-31 0 -53 -8.5t-38 -22.5q-34 -32 -34 -80
q0 -55 33.5 -86t92.5 -31h132v115h85v-115h111v-75h-111zM457 328h-126q-31 0 -58 -10t-47 -27t-31 -41t-11 -53q0 -24 7.5 -44t20.5 -34q20 -22 49.5 -32.5t61.5 -10.5h134v252z" />
    <glyph glyph-name="integral" unicode="&#x222b;" horiz-adv-x="663" 
d="M562 164l-427 427v-331h-70v449h451v-67h-330l427 -427z" />
    <glyph glyph-name="approxequal" unicode="&#x2248;" horiz-adv-x="655" 
d="M580 374q-24 -24 -44 -39t-38 -24t-35 -12t-36 -3q-29 0 -57 10t-58 24q-19 8 -41 16t-44 8q-10 0 -20.5 -1t-22 -6t-25.5 -14.5t-31 -26.5l-53 55q24 24 44 39t38 24t35 12t36 3q22 0 42 -5t40 -13t39 -16t39 -15q18 -7 39 -7q10 0 20.5 1t22 5.5t25.5 14t31 26.5
l54 -56v0zM580 184q-24 -24 -44 -39t-38 -24t-35 -12t-36 -3q-29 0 -57 9.5t-58 23.5q-19 8 -41 16.5t-44 8.5q-10 0 -20.5 -1t-22 -6t-25.5 -14.5t-31 -26.5l-53 54q24 24 44 39t38 24t35 12t36 3q22 0 42 -4.5t40 -12.5t39 -16t39 -15q21 -8 39 -8q10 0 20.5 1t22 5.5
t25.5 14t31 26.5l54 -55v0z" />
    <glyph glyph-name="notequal" unicode="&#x2260;" horiz-adv-x="692" 
d="M268 134l-83 -118l-50 35l58 83h-88v77h142l93 133h-235v77h289l79 113l50 -35l-55 -78h119v-77h-172l-94 -133h266v-77h-319z" />
    <glyph glyph-name="lessequal" unicode="&#x2264;" horiz-adv-x="857" 
d="M188 269l235 -232l-48 -50l-320 318l320 318l48 -50l-235 -232h604v-72h-604z" />
    <glyph glyph-name="greaterequal" unicode="&#x2265;" horiz-adv-x="857" 
d="M483 -13l-48 50l234 232h-604v72h604l-234 232l48 50l319 -318z" />
    <glyph glyph-name="lozenge" unicode="&#x25ca;" 
d="M512 348q0 -50 -3 -93.5t-12 -81t-25 -69t-42 -58.5q-26 -26 -62 -42.5t-88 -16.5t-88 16.5t-62 42.5q-26 27 -42 58.5t-25 69t-12 81t-3 93.5t3 94t12 81.5t25 69t42 58.5q26 26 62 42t88 16t88 -16t62 -42q26 -27 42 -58.5t25 -69t12 -81.5t3 -94zM400 550
q-12 28 -34 49q-15 14 -36.5 23t-49.5 9t-49.5 -9t-36.5 -23q-22 -21 -33.5 -49.5t-17 -61.5t-6 -69t-0.5 -71v-59t3 -59l260 320v0zM423 348q0 28 -0.5 56t-2.5 55l-257 -319q6 -12 13.5 -23t17.5 -20q15 -14 36.5 -23t49.5 -9t49.5 9t36.5 23q22 21 33.5 49.5t17 61.5
t6 69t0.5 71z" />
    <glyph glyph-name="apple" unicode="&#xf8ff;" horiz-adv-x="588" 
d="M539 364q0 -41 -26 -67.5t-67 -26.5h-72q17 -23 17 -54q0 -41 -26 -67t-67 -26h-249v248q0 41 26 67.5t67 26.5q30 0 55 -17v71q0 41 26 67.5t67 26.5t67 -26.5t26 -67.5v-62h63q41 0 67 -26.5t26 -66.5zM522 364q0 34 -21 55t-55 21h-79v79q0 34 -21.5 55.5t-55.5 21.5
t-55 -21.5t-21 -55.5v-232h232q34 0 55 21.5t21 55.5z" />
    <glyph glyph-name="fi" unicode="&#xfb01;" horiz-adv-x="638" 
d="M361 652q-20 2 -38.5 5t-45.5 3q-34 0 -53 -19t-19 -50v-85h146v-72h-146v-434h-85v434h-92v72h92v90q0 29 10.5 53.5t30 43t46.5 29t60 10.5q26 0 49.5 -2.5t44.5 -6.5v-71v0zM452 622v100h99v-100h-99zM458 0v506h87v-506h-87z" />
    <glyph glyph-name="fl" unicode="&#xfb02;" horiz-adv-x="662" 
d="M361 652q-20 2 -38.5 5t-45.5 3q-34 0 -53 -19t-19 -50v-85h146v-72h-146v-434h-85v434h-92v72h92v90q0 29 10.5 53.5t30 43t46.5 29t60 10.5q26 0 49.5 -2.5t44.5 -6.5v-71v0zM612 -3q-15 -3 -45 -3q-56 0 -81 32t-25 92v604h85v-599q0 -26 10 -39t36 -13q11 0 17.5 0.5
t10.5 0.5h7v-72z" />
    <glyph glyph-name=".ttfautohint" horiz-adv-x="662" 
d="M0 0z" />
    </font>
</defs>
</svg>
