<?xml version="1.0" standalone="no"?>
<!DOCTYPE svg PUBLIC "-//W3C//DTD SVG 1.1//EN" "http://www.w3.org/Graphics/SVG/1.1/DTD/svg11.dtd" >
<svg xmlns="http://www.w3.org/2000/svg" xmlns:xlink="http://www.w3.org/1999/xlink" version="1.1">
<metadata>
Created by FontForge 20170731 at Sun Apr 18 14:26:51 2004
 By ,,,
Copyright (c) Laurenz Brunner. www.lineto.com, 2004. All rights reserved.
</metadata>
<defs>
<font id="Akkurat-Light" horiz-adv-x="568" >
  <font-face 
    font-family="Akkurat-Light"
    font-weight="400"
    font-stretch="normal"
    units-per-em="1000"
    panose-1="2 0 5 3 3 0 0 2 0 4"
    ascent="800"
    descent="-200"
    x-height="500"
    cap-height="709"
    bbox="-18 -281 1081 940"
    underline-thickness="0"
    underline-position="0"
    unicode-range="U+0020-FB02"
  />
<missing-glyph horiz-adv-x="588" 
d="M88 698h412v-698h-412v698zM425 74v549h-262v-549h262z" />
    <glyph glyph-name=".notdef" horiz-adv-x="588" 
d="M88 698h412v-698h-412v698zM425 74v549h-262v-549h262z" />
    <glyph glyph-name=".null" horiz-adv-x="0" 
 />
    <glyph glyph-name="nonmarkingreturn" horiz-adv-x="215" 
 />
    <glyph glyph-name="space" unicode=" " horiz-adv-x="215" 
 />
    <glyph glyph-name="space" unicode="&#xa0;" horiz-adv-x="215" 
 />
    <glyph glyph-name="exclam" unicode="!" horiz-adv-x="307" 
d="M184 227h-34l-14 288v194h62v-194zM130 0v76h76v-76h-76z" />
    <glyph glyph-name="quotedbl" unicode="&#x22;" horiz-adv-x="438" 
d="M293 433h-32l-14 152v124h61v-124zM142 433h-32l-14 152v124h61v-124z" />
    <glyph glyph-name="numbersign" unicode="#" horiz-adv-x="765" 
d="M550 452l-29 -209h133v-45h-140l-28 -198h-44l28 198h-216l-28 -198h-45l28 198h-126v45h133l29 209h-129v45h136l28 198h44l-28 -198h216l28 198h45l-28 -198h130v-45h-137zM290 452l-30 -209h216l30 209h-216z" />
    <glyph glyph-name="dollar" unicode="$" 
d="M523 202q0 -45 -16 -77.5t-40 -55.5q-60 -60 -162 -66v-91h-41v91q-49 3 -94 21t-76 51q-28 30 -44.5 69t-16.5 85h50q0 -38 14 -70t37 -55q25 -26 58.5 -39.5t71.5 -15.5v293l-45 6q-34 5 -64.5 17.5t-53 33.5t-35.5 51t-13 70q0 42 17 73t43 54q62 55 151 60v93h41v-94
q44 -5 82 -22t64 -45t42.5 -62.5t18.5 -78.5h-50q-2 33 -14.5 61t-33.5 51q-20 21 -48.5 33t-60.5 16v-270l47 -6q80 -10 125.5 -57t45.5 -124zM264 661q-33 -2 -62 -11.5t-52 -29.5q-20 -17 -33.5 -41.5t-13.5 -58.5q0 -31 10 -52.5t27 -35.5t38.5 -22t45.5 -11l40 -5v267z
M473 202q0 58 -33.5 90t-93.5 40l-41 5v-288q38 3 69.5 16t55.5 36q18 17 30.5 43t12.5 58z" />
    <glyph glyph-name="percent" unicode="%" horiz-adv-x="925" 
d="M852 172q0 -35 -7.5 -67t-25.5 -58q-19 -26 -48.5 -43.5t-70.5 -17.5t-70.5 17.5t-48.5 43.5q-18 26 -25.5 58t-7.5 67t7.5 67t25.5 58q19 26 48.5 43.5t70.5 17.5t70.5 -17t48.5 -44q18 -26 25.5 -58t7.5 -67zM218 -12l-35 27l517 704l36 -25zM372 536q0 -35 -7.5 -67
t-25.5 -58q-19 -26 -48.5 -43.5t-70.5 -17.5t-71 17.5t-49 43.5q-18 26 -25 58t-7 67t7 67t25 58q19 26 48.5 43.5t70.5 17.5t71 -17t49 -44q18 -26 25.5 -58t7.5 -67zM806 172q0 29 -6 55t-18.5 45t-32.5 30t-49 11q-28 0 -48.5 -11t-33.5 -30t-19 -45t-6 -55t6 -55t19 -45
t33.5 -30t48.5 -11q29 0 49 11t32.5 30t18.5 45t6 55zM326 536q0 29 -6 55t-19 45t-33 30t-49 11q-28 0 -48.5 -11t-33 -30t-18.5 -45t-6 -55t6 -55t19 -45t33.5 -30t48.5 -11q29 0 49 11t32.5 30t18.5 45t6 55z" />
    <glyph glyph-name="ampersand" unicode="&#x26;" horiz-adv-x="719" 
d="M591 352q0 -28 -2.5 -59t-8 -61t-15.5 -58t-25 -50l111 -124h-64l-74 84q-38 -45 -92 -71.5t-121 -26.5q-43 0 -81.5 14t-67 40t-45 63t-16.5 83q0 54 25.5 97t71.5 70l56 33l-52 58q-26 29 -37.5 58t-11.5 63q0 33 12.5 62t34.5 50t53 33.5t67 12.5q35 0 66 -11
t54 -31.5t36.5 -50t13.5 -65.5q0 -51 -23 -86.5t-64 -59.5l-74 -44l188 -213q22 39 29.5 86.5t7.5 105.5v43h124v-45h-76zM430 565q0 51 -34.5 81.5t-86.5 30.5q-24 0 -45 -8t-37 -22.5t-25.5 -35t-9.5 -46.5t12 -50.5t30 -45.5l52 -60l81 50q29 18 46 45.5t17 60.5z
M275 350l-56 -33q-36 -21 -57 -55t-21 -76q0 -34 12.5 -61.5t34.5 -47t50.5 -30.5t61.5 -11q60 0 103 23t75 63z" />
    <glyph glyph-name="quotesingle" unicode="'" horiz-adv-x="241" 
d="M136 433h-32l-14 152v124h61v-124z" />
    <glyph glyph-name="parenleft" unicode="(" horiz-adv-x="291" 
d="M240 -128q-40 45 -71 99.5t-52 113t-31.5 119.5t-10.5 119q0 59 10.5 119.5t31.5 119t52 113t71 99.5l31 -24q-74 -95 -111.5 -199t-37.5 -228t37.5 -228t111.5 -199z" />
    <glyph glyph-name="parenright" unicode=")" horiz-adv-x="291" 
d="M216 323q0 -58 -10.5 -119t-31.5 -119.5t-51.5 -113t-71.5 -99.5l-31 24q74 95 111.5 199t37.5 228t-37.5 228t-111.5 199l31 24q41 -45 71.5 -99.5t51.5 -113t31.5 -119t10.5 -119.5z" />
    <glyph glyph-name="asterisk" unicode="*" horiz-adv-x="534" 
d="M298 480l108 -143l-38 -28l-102 149l-102 -149l-38 28l110 143l-173 52l14 45l171 -60l-5 180h47l-4 -180l170 60l15 -45z" />
    <glyph glyph-name="plus" unicode="+" horiz-adv-x="683" 
d="M365 280v-275h-47v275h-245v45h245v257h47v-257h245v-45h-245z" />
    <glyph glyph-name="comma" unicode="," horiz-adv-x="269" 
d="M181 -1q0 -43 -18 -73t-58 -49l-17 28q32 17 44 37.5t12 57.5h-55v90h92v-91v0z" />
    <glyph glyph-name="hyphen" unicode="-" horiz-adv-x="433" 
d="M75 279v46h283v-46h-283z" />
    <glyph glyph-name="period" unicode="." horiz-adv-x="264" 
d="M88 0v90h88v-90h-88z" />
    <glyph glyph-name="slash" unicode="/" horiz-adv-x="396" 
d="M71 -13h-46l313 735h46z" />
    <glyph glyph-name="zero" unicode="0" 
d="M507 348q0 -41 -2.5 -84t-11.5 -83.5t-25 -76t-43 -61.5q-24 -23 -58.5 -39.5t-82.5 -16.5t-82.5 16.5t-58.5 39.5q-27 26 -43 61.5t-25 76t-11.5 83.5t-2.5 84t2.5 84t11.5 83.5t25 76t43 61.5q24 23 58.5 39.5t82.5 16.5t82.5 -16.5t58.5 -39.5q27 -26 43 -61.5t25 -76
t11.5 -83.5t2.5 -84zM456 348q0 34 -1.5 72t-7.5 75t-19 70t-37 56q-19 18 -44.5 29t-62.5 11t-62.5 -11t-44.5 -29q-24 -23 -37 -56t-19 -70t-7.5 -75t-1.5 -72t1.5 -72t7.5 -75t19 -70t37 -56q19 -18 44.5 -29t62.5 -11t62.5 11t44.5 29q24 23 37 56t19 70t7.5 75t1.5 72z
" />
    <glyph glyph-name="one" unicode="1" 
d="M293 0v633l-173 -127v56l178 133h45v-695h-50z" />
    <glyph glyph-name="two" unicode="2" 
d="M99 0v54l278 347q21 26 38.5 62.5t17.5 71.5q0 30 -10.5 53.5t-29 39.5t-43 24.5t-53.5 8.5q-72 0 -109 -44.5t-37 -113.5h-53q0 45 13.5 82.5t39.5 65t63 43t83 15.5q41 0 75 -12t58.5 -34.5t38.5 -54.5t14 -73q0 -45 -20.5 -87.5t-47.5 -75.5l-260 -324h347v-48h-403z
" />
    <glyph glyph-name="three" unicode="3" 
d="M488 182q0 -44 -17 -80t-46 -61.5t-68.5 -39.5t-83.5 -14q-50 0 -89 16.5t-66.5 45t-42 68t-15.5 85.5h51q0 -34 10 -64t30.5 -53t50.5 -36.5t71 -13.5q74 0 118.5 39.5t44.5 107.5q0 78 -44.5 117t-119.5 39h-37v48h37q68 0 108.5 35t40.5 105q0 31 -11.5 56t-31.5 42.5
t-46.5 27t-55.5 9.5q-72 0 -115.5 -43t-44.5 -114h-52q1 47 17 84.5t44.5 64.5t67 41.5t83.5 14.5q40 0 76 -13t63 -36.5t42.5 -57.5t15.5 -76q0 -57 -28 -102t-85 -62q31 -9 54.5 -26.5t40 -41t25 -52.5t8.5 -60z" />
    <glyph glyph-name="four" unicode="4" 
d="M433 159v-159h-51v159h-328v55l283 481h57l-286 -486h274v215h51v-215h97v-50h-97z" />
    <glyph glyph-name="five" unicode="5" 
d="M508 218q0 -49 -13 -91t-39.5 -73.5t-67 -49.5t-94.5 -18q-49 0 -88.5 16.5t-68 45.5t-44 68t-16.5 85h51q2 -37 14 -68t33 -53t51.5 -34t67.5 -12q41 0 72 13.5t51 37.5t30 58t10 75q0 38 -9 71.5t-28 58.5t-48 39.5t-70 14.5q-45 0 -85 -18.5t-64 -57.5h-62l16 369h378
v-47h-330l-14 -276q26 42 70 59.5t91 17.5q52 0 90.5 -17.5t64 -48.5t38.5 -73t13 -92z" />
    <glyph glyph-name="six" unicode="6" 
d="M511 220q0 -48 -14.5 -90t-42 -74t-67.5 -50.5t-91 -18.5q-58 0 -99.5 26t-64.5 59q-19 27 -31 59.5t-18.5 68.5t-9 74t-2.5 75q0 40 2.5 81t11 79.5t23.5 72.5t39 61q24 26 60 46t88 20q42 0 77.5 -13t61.5 -36.5t42 -57t18 -74.5h-52q-4 60 -42.5 96.5t-104.5 36.5
q-38 0 -65 -13.5t-45 -33.5q-22 -24 -34.5 -57.5t-18.5 -70.5t-7.5 -74.5t-1.5 -69.5q21 48 67 78.5t105 30.5q51 0 91.5 -17t68 -47.5t42 -73t14.5 -93.5zM460 220q0 36 -9.5 69.5t-29.5 59t-51 41t-74 15.5q-34 0 -60 -11.5t-46 -30.5q-53 -51 -53 -141q0 -36 10 -69.5
t30 -60t50 -42t70 -15.5q43 0 73.5 15.5t50.5 41t29.5 59t9.5 69.5z" />
    <glyph glyph-name="seven" unicode="7" 
d="M190 0h-54l302 647h-383v48h434v-53z" />
    <glyph glyph-name="eight" unicode="8" 
d="M503 183q0 -47 -18 -83.5t-48 -61.5t-70 -38t-84 -13t-83.5 13t-69.5 38t-47.5 61.5t-17.5 83.5q0 29 8.5 57.5t24.5 52.5t39 42t51 28q-49 19 -78 64t-29 97q0 44 16 78.5t43.5 58t65 36t79.5 12.5t79 -12.5t64.5 -36t43 -58t15.5 -78.5q0 -52 -29 -97t-78 -64
q28 -10 51 -28t39 -42t24.5 -52.5t8.5 -57.5zM435 526q0 33 -12 59t-32.5 43.5t-48 26.5t-59.5 9q-31 0 -58.5 -9t-48 -26.5t-32 -43.5t-11.5 -59q0 -34 11.5 -60.5t32 -44.5t48.5 -27t60 -9t59.5 9t47.5 27t31.5 44.5t11.5 60.5zM451 186q0 37 -13 66t-35.5 48.5t-53.5 30
t-66 10.5t-65.5 -10.5t-53 -30t-35 -48.5t-12.5 -66t13 -65.5t35.5 -48t53.5 -29.5t66 -10t65.5 10t53 29.5t35 48t12.5 65.5z" />
    <glyph glyph-name="nine" unicode="9" 
d="M496 347q0 -40 -2 -81.5t-9 -80.5t-21 -74t-38 -62q-24 -26 -60 -44t-88 -18q-42 0 -77.5 13t-62.5 36.5t-43 57t-18 74.5h52q4 -60 43.5 -96.5t105.5 -36.5q38 0 65 11.5t45 31.5q22 24 33.5 58t16.5 72t5.5 76.5t0.5 69.5q-21 -48 -66 -78.5t-104 -30.5q-51 0 -91.5 17
t-68 47.5t-42 73t-14.5 93.5q0 48 14.5 90t42 74t67.5 50.5t91 18.5q58 0 100.5 -25.5t65.5 -58.5q19 -27 30.5 -59.5t17.5 -69t7.5 -74.5t1.5 -75zM432 474q0 36 -10 69.5t-30 60t-50 42t-70 15.5q-43 0 -73.5 -15.5t-50.5 -41t-29.5 -59t-9.5 -69.5t9.5 -69.5t29.5 -59
t51 -41t74 -15.5q34 0 60 11.5t46 30.5q53 51 53 141z" />
    <glyph glyph-name="colon" unicode=":" horiz-adv-x="289" 
d="M110 414v86h83v-86h-83zM110 0v86h83v-86h-83z" />
    <glyph glyph-name="semicolon" unicode=";" horiz-adv-x="289" 
d="M114 414v86h83v-86h-83zM199 -1q0 -81 -73 -116l-16 27q31 17 42.5 36t11.5 54h-53v86h88v-87v0z" />
    <glyph glyph-name="less" unicode="&#x3c;" horiz-adv-x="488" 
d="M383 -23l-328 327l327 327l30 -31l-296 -296l297 -297z" />
    <glyph glyph-name="equal" unicode="=" horiz-adv-x="693" 
d="M113 373v46h467v-46h-467zM113 136v46h467v-46h-467z" />
    <glyph glyph-name="greater" unicode="&#x3e;" horiz-adv-x="488" 
d="M105 -23l-30 30l297 297l-296 296l30 31l327 -327z" />
    <glyph glyph-name="question" unicode="?" horiz-adv-x="488" 
d="M458 542q0 -63 -29.5 -105.5t-76.5 -72.5q-26 -16 -42 -31t-25 -32.5t-12 -39.5t-3 -53h-52q0 39 5.5 67.5t18.5 51t34.5 42t53.5 41.5q72 48 72 129q0 63 -40.5 99t-104.5 36q-78 0 -120 -41t-42 -118h-55q0 48 16 87t44.5 66t68.5 42t88 15q45 0 84 -15.5t66 -43.5
q23 -25 37 -55.5t14 -68.5zM205 0v78h79v-78h-79z" />
    <glyph glyph-name="at" unicode="@" horiz-adv-x="934" 
d="M862 381q0 -46 -11.5 -94.5t-34.5 -87.5t-59 -64t-86 -25q-34 0 -59 22t-31 57q-18 -34 -55 -55.5t-75 -21.5t-67.5 14.5t-49 38.5t-29.5 56t-10 67q0 41 12.5 80t36 70t58 49.5t79.5 18.5q35 0 65.5 -16.5t44.5 -49.5l13 57h37l-20 -264q-2 -35 12 -57.5t43 -22.5
q35 0 61 19.5t43 52t26 73.5t9 83q0 71 -25 125.5t-68.5 92.5t-102.5 57.5t-126 19.5q-82 0 -149 -27.5t-113.5 -76.5t-72 -117t-25.5 -149q0 -72 24 -136t68 -111t105.5 -74.5t135.5 -27.5q66 0 129 11.5t124 37.5v-47q-65 -28 -125.5 -38t-130.5 -10q-85 0 -155 30.5
t-119.5 84t-77 125.5t-27.5 155q0 92 29 168.5t82.5 131.5t129 85.5t168.5 30.5q77 0 144 -23t117 -67t79 -107.5t29 -143.5zM582 330q0 26 -5.5 50t-18.5 42.5t-33.5 29.5t-50.5 11q-32 0 -56.5 -16t-41 -41t-25 -56t-8.5 -62q0 -28 7 -52.5t20.5 -42.5t34 -28.5
t48.5 -10.5q35 0 59.5 17t40 42.5t22.5 57t7 59.5z" />
    <glyph glyph-name="A" unicode="A" horiz-adv-x="608" 
d="M547 0l-72 187h-343l-70 -187h-54l269 709h51l272 -709h-53zM302 637l-151 -401h305z" />
    <glyph glyph-name="B" unicode="B" horiz-adv-x="660" 
d="M602 196q0 -42 -15.5 -81t-49.5 -66q-38 -31 -84 -40t-94 -9h-251v709h251q40 0 80 -7.5t74 -30.5t53.5 -59.5t19.5 -76.5q0 -58 -26 -103.5t-87 -62.5q66 -16 97.5 -64t31.5 -109zM533 531q0 37 -15 62t-39.5 40t-56 21t-63.5 6h-199v-265h199q37 0 68.5 5.5t55 20.5
t37 41.5t13.5 68.5zM549 200q0 44 -15 72t-41 44t-60.5 22.5t-73.5 6.5h-199v-296h199q36 0 70.5 6.5t61 23t42.5 46t16 75.5z" />
    <glyph glyph-name="C" unicode="C" horiz-adv-x="623" 
d="M580 217q-4 -49 -24 -91t-53 -73t-77.5 -48.5t-97.5 -17.5q-51 0 -100.5 20t-86.5 57q-28 29 -45 64t-25 72.5t-10.5 77t-2.5 77.5t2.5 77t10.5 77t25 72.5t45 63.5q37 37 86.5 57t100.5 20q53 0 97.5 -17.5t77.5 -48.5t53 -73t24 -91h-54q-3 39 -19 72t-41.5 57
t-60.5 37t-77 13q-48 0 -84 -16t-65 -45q-24 -25 -37.5 -56t-20 -64.5t-8 -68t-1.5 -66.5t1.5 -66.5t8.5 -68.5t20.5 -65t37.5 -56q59 -61 148 -61q42 0 77 13t60.5 37t41.5 57t19 72h54v0z" />
    <glyph glyph-name="D" unicode="D" horiz-adv-x="666" 
d="M608 355q0 -37 -2.5 -75.5t-11.5 -76t-26 -71.5t-46 -62q-32 -31 -77 -50.5t-102 -19.5h-235v709h235q57 0 102 -19.5t77 -50.5q29 -28 46 -62t26 -71t11.5 -75.5t2.5 -75.5zM555 355q0 32 -2 66t-9 67t-21 63t-39 54q-27 26 -64 39.5t-77 13.5h-183v-607h183
q40 0 77 13.5t64 39.5q25 24 39 54.5t21 63.5t9 67t2 66z" />
    <glyph glyph-name="E" unicode="E" horiz-adv-x="616" 
d="M108 0v709h454v-50h-401v-260h353v-50h-353v-299h401v-50h-454z" />
    <glyph glyph-name="F" unicode="F" horiz-adv-x="582" 
d="M160 659v-274h353v-50h-353v-335h-52v709h444v-50h-392z" />
    <glyph glyph-name="G" unicode="G" horiz-adv-x="678" 
d="M557 0l-11 109q-14 -28 -36 -51t-49.5 -38.5t-58.5 -24t-63 -8.5q-57 0 -105.5 21t-81.5 54q-28 28 -46 63t-27.5 73.5t-13 78t-3.5 77.5t3 77.5t13 77.5t27.5 73t46.5 63q34 33 82 55t105 22q55 0 100.5 -16t78.5 -44t53 -66.5t24 -84.5h-53q-3 35 -15 59.5t-32 46.5
q-28 30 -68.5 42t-86.5 12t-82.5 -15.5t-64.5 -42.5q-25 -24 -40 -55.5t-23 -66t-11 -69.5t-3 -68q0 -32 3 -68t11 -71t23.5 -66.5t40.5 -55.5q58 -55 145 -55q43 0 80.5 15t61.5 41q21 23 33.5 49.5t19 55t8 58.5t1.5 59h-209v51h262v-367h-39z" />
    <glyph glyph-name="H" unicode="H" horiz-adv-x="716" 
d="M556 0v348h-396v-348h-52v709h52v-310h396v310h52v-709h-52z" />
    <glyph glyph-name="I" unicode="I" horiz-adv-x="269" 
d="M108 0v709h53v-709h-53z" />
    <glyph glyph-name="J" unicode="J" horiz-adv-x="506" 
d="M411 199q0 -48 -13.5 -87.5t-39.5 -67.5q-25 -26 -60 -41.5t-83 -15.5q-42 0 -75 13.5t-58 36.5q-33 30 -49.5 76.5t-17.5 101.5h53q0 -44 12 -81t38 -62q36 -34 97 -34q70 0 106 39q20 21 29 52t9 69v511h52v-510v0z" />
    <glyph glyph-name="K" unicode="K" horiz-adv-x="655" 
d="M580 0l-235 405l-184 -208v-197h-53v709h53v-437l390 437h64l-235 -265l259 -444h-59z" />
    <glyph glyph-name="L" unicode="L" horiz-adv-x="546" 
d="M108 0v709h52v-660h368v-49h-420z" />
    <glyph glyph-name="M" unicode="M" horiz-adv-x="882" 
d="M723 0v634l-259 -624h-46l-259 619v-629h-51v709h73l262 -630l257 630h74v-709h-51z" />
    <glyph glyph-name="N" unicode="N" horiz-adv-x="738" 
d="M571 0l-411 628v-628h-52v709h59l412 -627v627h51v-709h-59z" />
    <glyph glyph-name="O" unicode="O" horiz-adv-x="658" 
d="M600 355q0 -38 -2.5 -78.5t-12 -79t-27 -74t-47.5 -64.5q-33 -32 -78.5 -52t-103.5 -20t-103.5 20t-78.5 52q-30 29 -47.5 64.5t-27 74t-12 79t-2.5 78.5t2.5 78t12 78.5t27 74t47.5 64.5q33 32 78.5 52t103.5 20t103.5 -20t78.5 -52q30 -29 47.5 -64.5t27 -74t12 -78.5
t2.5 -78zM546 355q0 32 -1.5 67t-8.5 70t-22 67t-41 57q-28 27 -65 41t-79 14t-79 -14t-65 -41q-26 -25 -41 -57t-22 -67t-8.5 -70t-1.5 -67q0 -31 1.5 -66.5t8.5 -70.5t22 -67.5t41 -57.5q28 -27 65 -41t79 -14t79 14t65 41q26 25 41 57.5t22 67.5t8.5 70.5t1.5 66.5z" />
    <glyph glyph-name="P" unicode="P" horiz-adv-x="618" 
d="M590 500q0 -54 -17.5 -93t-49 -65t-75 -38.5t-94.5 -12.5h-194v-291h-52v709h246q51 0 94.5 -12.5t75 -38.5t49 -65t17.5 -93zM536 500q0 42 -14 72t-38 49.5t-57.5 28.5t-72.5 9h-194v-318h194q39 0 72.5 9t57.5 28.5t38 49.5t14 72z" />
    <glyph glyph-name="Q" unicode="Q" horiz-adv-x="658" 
d="M600 355q0 -37 -2.5 -76.5t-11.5 -78t-25.5 -73.5t-45.5 -64q7 -9 13 -16.5t13.5 -17t17 -22t23.5 -30.5l-36 -29l-67 85q-30 -21 -67.5 -33.5t-82.5 -12.5q-58 0 -103.5 20t-78.5 52q-30 29 -47.5 64.5t-27 74t-12 79t-2.5 78.5t2.5 78t12 78.5t27 74t47.5 64.5
q33 32 78.5 52t103.5 20t103.5 -20t78.5 -52q30 -29 47.5 -64.5t27 -74t12 -78.5t2.5 -78zM546 355q0 32 -1.5 67t-8.5 70t-22 67t-41 57q-28 27 -65 41t-79 14t-79 -14t-65 -41q-26 -25 -41 -57t-22 -67t-8.5 -70t-1.5 -67q0 -31 1.5 -66.5t8.5 -70.5t22 -67.5t41 -57.5
q28 -27 65 -41t79 -14q67 0 119 35l-106 135l36 29l105 -133q23 25 35.5 56t18.5 64.5t7.5 67t1.5 63.5z" />
    <glyph glyph-name="R" unicode="R" horiz-adv-x="656" 
d="M606 505q0 -70 -40 -121t-107 -69l144 -315h-57l-139 302h-247v-302h-52v709h259q58 0 102.5 -14.5t75 -41.5t46 -64.5t15.5 -83.5zM552 505q0 76 -48.5 115.5t-136.5 39.5h-207v-310h207q88 0 136.5 39.5t48.5 115.5z" />
    <glyph glyph-name="S" unicode="S" horiz-adv-x="622" 
d="M569 192q0 -47 -15.5 -79t-40.5 -57q-36 -35 -87.5 -52t-113.5 -17q-61 0 -112 19t-86 57q-26 28 -43 64t-21 77h54q4 -32 18 -60t34 -49q29 -29 70 -43.5t86 -14.5q46 0 89 12.5t72 40.5q19 18 30.5 43t11.5 59q0 26 -9.5 49t-27.5 41.5t-43.5 31t-57.5 16.5l-132 17
q-37 5 -69 18t-55.5 35.5t-36.5 53.5t-13 72q0 45 17.5 77t44.5 57q33 30 79 46t96 16q57 0 109.5 -21.5t82.5 -56.5q23 -26 37 -55.5t17 -67.5h-53q-4 27 -13 48.5t-26 41.5q-23 29 -64 45t-90 16q-38 0 -73.5 -10t-61.5 -33q-20 -18 -34 -43t-14 -60q0 -31 10.5 -53.5
t27.5 -37t40 -22.5t47 -11l134 -17q41 -5 75 -22t58.5 -42.5t38 -58t13.5 -70.5z" />
    <glyph glyph-name="T" unicode="T" horiz-adv-x="533" 
d="M292 659v-659h-52v659h-225v50h503v-50h-226z" />
    <glyph glyph-name="U" unicode="U" horiz-adv-x="693" 
d="M598 260q0 -58 -15.5 -108t-47 -87t-78.5 -57.5t-111 -20.5t-111 20.5t-78 57.5t-46.5 87t-15.5 108v449h52v-450q0 -46 11.5 -86.5t36 -70.5t62 -47.5t89.5 -17.5t90 17.5t62.5 47.5t36 70.5t11.5 86.5v450h52v-449v0z" />
    <glyph glyph-name="V" unicode="V" horiz-adv-x="573" 
d="M311 0h-49l-254 709h55l225 -634l222 634h55z" />
    <glyph glyph-name="W" unicode="W" horiz-adv-x="862" 
d="M674 0h-57l-187 621l-187 -621h-55l-149 709h49l133 -634l187 623h47l188 -623l131 634h49z" />
    <glyph glyph-name="X" unicode="X" horiz-adv-x="572" 
d="M490 0l-205 317l-206 -317h-56l233 359l-232 350h57l206 -310l206 310h56l-233 -350l233 -359h-59z" />
    <glyph glyph-name="Y" unicode="Y" horiz-adv-x="545" 
d="M298 281v-281h-51v281l-245 428h56l216 -377l216 377h53z" />
    <glyph glyph-name="Z" unicode="Z" horiz-adv-x="618" 
d="M50 0v56l451 604h-444v49h504v-56l-452 -604h457v-49h-516z" />
    <glyph glyph-name="bracketleft" unicode="[" horiz-adv-x="321" 
d="M110 -115v877h176v-41h-132v-795h132v-41h-176z" />
    <glyph glyph-name="backslash" unicode="\" horiz-adv-x="397" 
d="M325 -13l-313 735h47l313 -735h-47z" />
    <glyph glyph-name="bracketright" unicode="]" horiz-adv-x="321" 
d="M35 -115v41h132v795h-132v41h176v-877h-176z" />
    <glyph glyph-name="asciicircum" unicode="^" horiz-adv-x="513" 
d="M388 405l-131 267l-132 -267h-55l160 317h55l158 -317h-55z" />
    <glyph glyph-name="underscore" unicode="_" horiz-adv-x="530" 
d="M33 -43v43h464v-43h-464z" />
    <glyph glyph-name="grave" unicode="`" horiz-adv-x="243" 
d="M188 560l-168 99l27 44l158 -116z" />
    <glyph glyph-name="a" unicode="a" horiz-adv-x="561" 
d="M513 0q-9 -2 -12 -2.5t-12 -0.5q-46 0 -62.5 29t-16.5 69q-10 -27 -28.5 -47t-42.5 -33.5t-52 -20.5t-57 -7q-36 0 -67.5 10.5t-55 30.5t-36.5 48.5t-13 64.5q0 67 46.5 105.5t121.5 43.5l184 13v49q0 62 -37.5 88t-94.5 26q-60 0 -100 -27t-44 -83h-50q3 38 18.5 67
t41 49t60 30.5t74.5 10.5q26 0 51.5 -4.5t48.5 -15.5t41 -28.5t28 -43.5q9 -23 11 -47t2 -49v-228q0 -26 6.5 -40t32.5 -14q9 0 14 1v-44v0zM410 257l-179 -11q-56 -4 -89 -31.5t-33 -73.5q0 -54 35.5 -81t89.5 -27q47 0 80.5 17.5t54.5 45.5t31 63.5t10 71.5v26z" />
    <glyph glyph-name="b" unicode="b" horiz-adv-x="584" 
d="M530 249q0 -65 -20 -121.5t-62 -93.5q-25 -22 -57.5 -34.5t-75.5 -12.5q-25 0 -50.5 7t-47.5 20t-40 32t-28 42l-6 -88h-44v722h50v-306q10 21 27.5 39t39.5 31t47.5 20t52.5 7q44 0 77.5 -14t58.5 -38q40 -38 59 -94t19 -118zM479 250q0 48 -13.5 93t-42.5 77
q-20 20 -46 32t-61 12t-60.5 -10.5t-44.5 -28.5q-35 -32 -49 -75.5t-14 -99.5q0 -52 15 -96.5t49 -77.5q19 -18 44 -29t58 -11q32 0 56 9t43 26q35 31 50.5 78t15.5 101z" />
    <glyph glyph-name="c" unicode="c" horiz-adv-x="512" 
d="M468 158q-5 -36 -21 -67.5t-41.5 -54.5t-59.5 -36t-73 -13q-47 0 -84 16.5t-63 42.5q-39 39 -54.5 89.5t-15.5 114.5t15.5 114.5t54.5 89.5q26 26 63 42.5t84 16.5q39 0 72.5 -12t58.5 -34.5t41.5 -53.5t20.5 -69h-52q-8 52 -46 86t-95 34q-36 0 -63.5 -11.5t-47.5 -31.5
q-34 -35 -44.5 -78.5t-10.5 -92.5t10.5 -93t44.5 -79q40 -42 111 -42q58 0 95.5 35.5t46.5 86.5h53v0z" />
    <glyph glyph-name="d" unicode="d" horiz-adv-x="584" 
d="M441 0l-6 88q-10 -23 -28 -42t-40 -32t-47.5 -20t-50.5 -7q-43 0 -75.5 12.5t-57.5 34.5q-42 37 -62 93.5t-20 121.5q0 62 19 118t59 94q25 24 58.5 38t77.5 14q27 0 52.5 -7t47.5 -20t39.5 -31t27.5 -39v306h50v-722h-44zM436 250q0 56 -14 99.5t-49 75.5
q-19 18 -44.5 28.5t-60.5 10.5t-61 -12t-46 -32q-29 -32 -42.5 -77t-13.5 -93q0 -54 15.5 -101t50.5 -78q19 -17 43 -26t56 -9q33 0 58 11t44 29q34 33 49 77.5t15 96.5z" />
    <glyph glyph-name="e" unicode="e" horiz-adv-x="539" 
d="M489 271q0 -9 -0.5 -16.5t-0.5 -16.5h-382q1 -44 14.5 -82.5t37.5 -67.5q21 -25 50.5 -39t70.5 -14q67 0 109 44q14 14 23.5 31t14.5 40h52q-5 -32 -20 -58.5t-36 -46.5q-27 -27 -63.5 -42.5t-79.5 -15.5q-54 0 -93 20t-66 51q-31 36 -47.5 84.5t-16.5 105.5q0 48 10 93
t39 85q64 87 170 87q51 0 90.5 -20t67 -53.5t42 -77.5t14.5 -91zM438 284q-1 36 -12 68.5t-32 58t-51 40.5t-68 15q-39 0 -70 -14.5t-52.5 -39.5t-33.5 -58t-12 -70h331v0z" />
    <glyph glyph-name="f" unicode="f" horiz-adv-x="351" 
d="M349 677q-15 2 -32.5 4t-39.5 2q-95 0 -95 -97v-86h157v-46h-157v-454h-50v454h-100v46h100v88q0 29 9 54t26.5 44.5t44 30.5t61.5 11q22 0 40 -1.5t36 -4.5v-45v0z" />
    <glyph glyph-name="g" unicode="g" horiz-adv-x="533" 
d="M514 -75q0 -29 -10.5 -52.5t-27.5 -40.5q-32 -33 -85 -46t-113 -13q-57 0 -105.5 13t-80.5 45q-17 17 -26 39t-9 51q0 36 20 68t55 49q-26 8 -44.5 32t-18.5 50q0 32 15.5 55t44.5 40q-23 23 -36.5 53.5t-13.5 69.5q0 41 14.5 73t39.5 55t59.5 35t73.5 12q66 0 117 -34
q10 32 38.5 50t62.5 18q5 0 9.5 -1t9.5 -1v-43q-5 0 -9.5 1t-9.5 1q-27 0 -45.5 -14t-23.5 -40q19 -22 29.5 -50t10.5 -62q0 -40 -15 -72.5t-40.5 -54.5t-60 -34t-73.5 -12q-56 0 -100 23q-20 -8 -35 -23.5t-15 -38.5q0 -18 10 -29.5t25 -17.5q14 -5 33.5 -6.5t33.5 -1.5
h109q48 0 85.5 -12t61.5 -37q18 -18 29 -41t11 -56zM405 338q0 30 -10.5 54t-29.5 41t-44.5 26t-54.5 9t-54.5 -9t-44 -26t-29 -41t-10.5 -54t10.5 -53.5t29 -40t44 -25.5t54.5 -9t54.5 9t44.5 25.5t29.5 40t10.5 53.5zM464 -75q0 21 -6.5 35.5t-17.5 26.5q-35 37 -121 37
h-132q-16 -4 -31 -12t-26.5 -21t-18.5 -30.5t-7 -39.5q0 -20 7.5 -36t19.5 -27q14 -13 31.5 -20.5t37 -12t40 -6t39.5 -1.5t40.5 1.5t43.5 6t41.5 13.5t33.5 23q11 11 18.5 27t7.5 36z" />
    <glyph glyph-name="h" unicode="h" horiz-adv-x="583" 
d="M444 0v327q0 66 -30 102.5t-99 36.5q-46 0 -78 -18.5t-51.5 -49t-28 -69t-8.5 -79.5v-250h-50v722h50v-314q11 24 28.5 43.5t40 33t48.5 21t52 7.5q87 0 131.5 -49t44.5 -134v-330h-50z" />
    <glyph glyph-name="i" unicode="i" horiz-adv-x="260" 
d="M95 639v70h70v-70h-70zM104 0v500h53v-500h-53z" />
    <glyph glyph-name="j" unicode="j" horiz-adv-x="284" 
d="M119 639v70h69v-70h-69zM180 -64q0 -31 -7 -57.5t-22.5 -45.5t-40 -29.5t-59.5 -10.5q-22 0 -36.5 2t-32.5 5v46q15 -2 29 -4t36 -2q45 0 64 25.5t19 72.5v562h50v-564v0z" />
    <glyph glyph-name="k" unicode="k" horiz-adv-x="536" 
d="M457 0l-176 267l-131 -143v-124h-51v722h51v-526l281 304h63l-177 -193l201 -307h-61z" />
    <glyph glyph-name="l" unicode="l" horiz-adv-x="279" 
d="M241 0q-8 -2 -18.5 -4t-26.5 -2q-48 0 -74 25.5t-26 80.5v622h50v-620q0 -26 10 -43t42 -17h23.5t19.5 2v-44v0z" />
    <glyph glyph-name="m" unicode="m" horiz-adv-x="875" 
d="M736 0v327q0 65 -27 102t-92 37q-29 0 -50.5 -9t-38.5 -25q-29 -28 -44 -66t-15 -83v-283h-51v327q0 65 -27.5 102t-92.5 37q-29 0 -50.5 -9t-38.5 -25q-34 -32 -47 -80t-13 -102v-250h-50v500h44l6 -86q20 43 59 71t93 28q66 0 104.5 -29.5t53.5 -78.5q20 47 59.5 77.5
t101.5 30.5q44 0 75.5 -13.5t51.5 -38t29.5 -58t9.5 -73.5v-330h-50z" />
    <glyph glyph-name="n" unicode="n" horiz-adv-x="583" 
d="M444 0v327q0 66 -30 101.5t-99 35.5q-46 0 -78 -18t-51.5 -48t-28 -68.5t-8.5 -79.5v-250h-50v500h44l6 -91q11 24 28.5 43t40 32.5t48.5 21t52 7.5q87 0 131.5 -49t44.5 -134v-330h-50z" />
    <glyph glyph-name="o" unicode="o" horiz-adv-x="546" 
d="M490 250q0 -64 -16 -114t-55 -89q-26 -26 -62.5 -43t-83.5 -17t-83.5 17t-62.5 43q-39 39 -55 89t-16 114t16 114t55 89q26 26 62.5 43t83.5 17t83.5 -17t62.5 -43q39 -39 55 -89t16 -114zM439 250q0 49 -11 92t-45 78q-20 20 -47 32t-63 12t-63 -12t-47 -32
q-34 -35 -45 -78t-11 -92t11 -92t45 -78q20 -20 47 -32t63 -12t63 12t47 32q34 35 45 78t11 92z" />
    <glyph glyph-name="p" unicode="p" horiz-adv-x="584" 
d="M530 251q0 -62 -19 -118t-59 -94q-25 -24 -58.5 -38t-77.5 -14q-27 0 -52.5 7t-47.5 20t-39.5 31t-27.5 39v-284h-50v700h44l6 -88q10 23 28 42t40 32t47.5 20t50.5 7q43 0 75.5 -12.5t57.5 -34.5q42 -37 62 -93.5t20 -121.5zM479 250q0 54 -15.5 101t-50.5 78
q-19 17 -43 26t-56 9q-33 0 -58 -11t-44 -29q-34 -33 -49 -77.5t-15 -96.5q0 -56 14 -99.5t49 -75.5q19 -18 44.5 -28.5t60.5 -10.5t61 12t46 32q29 32 42.5 77t13.5 93z" />
    <glyph glyph-name="q" unicode="q" horiz-adv-x="584" 
d="M435 -200v284q-10 -21 -27.5 -39t-39.5 -31t-47.5 -20t-52.5 -7q-44 0 -77.5 14t-58.5 38q-40 38 -59 94t-19 118q0 65 20 121.5t62 93.5q25 22 57.5 34.5t75.5 12.5q25 0 50.5 -7t47.5 -20t40 -32t28 -42l6 88h44v-700h-50zM436 250q0 52 -15 96.5t-49 77.5
q-19 18 -44 29t-58 11q-32 0 -56 -9t-43 -26q-35 -31 -50.5 -78t-15.5 -101q0 -48 13.5 -93t42.5 -77q20 -20 46 -32t61 -12t60.5 10.5t44.5 28.5q35 32 49 75.5t14 99.5z" />
    <glyph glyph-name="r" unicode="r" horiz-adv-x="381" 
d="M357 452q-12 3 -24.5 4t-24.5 1q-47 0 -77.5 -19t-48.5 -50t-25.5 -70t-7.5 -78v-240h-50v500h44l6 -101q17 52 61.5 79t97.5 27q12 0 24.5 -0.5t24.5 -2.5v-50v0z" />
    <glyph glyph-name="s" unicode="s" horiz-adv-x="512" 
d="M456 139q0 -53 -34 -92q-27 -30 -69.5 -45t-92.5 -15q-51 0 -93 16t-71 48q-21 24 -30.5 47t-11.5 54h51q4 -44 37 -77q22 -21 52 -30.5t66 -9.5q39 0 69 9t49 28q14 14 20.5 28t6.5 36q0 34 -23.5 59.5t-68.5 31.5l-97 13q-31 4 -61.5 15t-51.5 35q-28 33 -28 79
q0 30 11.5 54.5t31.5 42.5q27 25 62.5 36t74.5 11q45 0 85 -14.5t66 -44.5q17 -20 27 -44t11 -48h-50q-2 12 -7.5 29t-17.5 31q-17 20 -46 32t-68 12q-58 0 -90 -23q-39 -28 -39 -69q0 -32 20 -54t77 -30l95 -13q35 -5 61 -18.5t43 -32.5t25.5 -41.5t8.5 -45.5z" />
    <glyph glyph-name="t" unicode="t" horiz-adv-x="370" 
d="M336 5q-21 -5 -41.5 -8.5t-41.5 -3.5q-70 0 -99.5 40.5t-29.5 105.5v315h-100v46h100v138l50 12v-150h155v-46h-155v-313q0 -22 3.5 -40.5t13 -32t25.5 -21t41 -7.5q20 0 39.5 2.5t39.5 6.5v-44v0z" />
    <glyph glyph-name="u" unicode="u" horiz-adv-x="583" 
d="M440 1l-6 91q-10 -24 -28 -43t-40.5 -32.5t-48.5 -21t-52 -7.5q-87 0 -131.5 49t-44.5 134v330h50v-327q0 -66 30 -101.5t99 -35.5q46 0 78 18.5t51.5 48.5t28 68.5t8.5 78.5v250h50v-500h-44z" />
    <glyph glyph-name="v" unicode="v" horiz-adv-x="467" 
d="M263 0h-51l-198 500h57l168 -429l161 429h53z" />
    <glyph glyph-name="w" unicode="w" horiz-adv-x="746" 
d="M579 0h-60l-147 428l-146 -428h-59l-124 500h48l108 -440l148 433h53l147 -429l109 436h47z" />
    <glyph glyph-name="x" unicode="x" horiz-adv-x="472" 
d="M390 0l-154 223l-155 -223h-59l180 259l-177 247h60l152 -214l153 214h58l-178 -247l180 -259h-60z" />
    <glyph glyph-name="y" unicode="y" horiz-adv-x="479" 
d="M235 -107q-19 -49 -51.5 -75.5t-83.5 -26.5q-15 0 -26.5 1t-19.5 3q-10 2 -17 5v42q10 -1 21 -3q18 -3 40 -3q36 0 57 21t34 53l32 82l-205 508h54l175 -444l168 444h54z" />
    <glyph glyph-name="z" unicode="z" horiz-adv-x="492" 
d="M61 0v56l320 397h-320v47h374v-55l-320 -397h323v-48h-377z" />
    <glyph glyph-name="braceleft" unicode="{" horiz-adv-x="351" 
d="M305 -116q-69 0 -105.5 37t-36.5 106v179q0 21 -8.5 37.5t-23 28.5t-33 19t-38.5 9v47q20 2 38.5 9t33 18.5t23 28t8.5 37.5v179q0 69 36.5 106t105.5 37h26v-42h-26q-52 0 -74 -25t-22 -76v-179q0 -43 -27 -74t-67 -42q40 -11 67 -43t27 -75v-179q0 -51 22 -76t74 -25
h26v-42h-26z" />
    <glyph glyph-name="bar" unicode="|" horiz-adv-x="258" 
d="M108 -115v876h42v-876h-42z" />
    <glyph glyph-name="braceright" unicode="}" horiz-adv-x="351" 
d="M291 300q-20 -2 -38.5 -9t-33 -19t-23 -28.5t-8.5 -37.5v-179q0 -69 -36.5 -106t-105.5 -37h-26v42h26q52 0 74 25t22 76v179q0 43 27 75t67 43q-40 11 -67 42t-27 74v179q0 51 -22 76t-74 25h-26v42h26q69 0 105.5 -37t36.5 -106v-179q0 -21 8.5 -37.5t23 -28t33 -18.5
t38.5 -9v-47v0z" />
    <glyph glyph-name="asciitilde" unicode="~" horiz-adv-x="620" 
d="M537 311q-28 -27 -58 -44.5t-71 -17.5q-27 0 -51.5 9.5t-48.5 20.5q-23 11 -46.5 20.5t-49.5 9.5q-30 0 -53 -13t-44 -33l-32 37q28 27 58.5 44t71.5 17q27 0 51.5 -8.5t48.5 -19.5q23 -11 46 -20t49 -9q30 0 52.5 11.5t44.5 31.5l32 -36v0z" />
    <glyph glyph-name="Zcaron" horiz-adv-x="618" 
d="M50 0v56l451 604h-444v49h504v-56l-452 -604h457v-49h-516zM204 920l111 -131l110 131l31 -27l-125 -143h-33l-125 143z" />
    <glyph glyph-name="Zcaron" unicode="&#x17d;" horiz-adv-x="618" 
d="M50 0v56l451 604h-444v49h504v-56l-452 -604h457v-49h-516zM204 920l111 -131l110 131l31 -27l-125 -143h-33l-125 143z" />
    <glyph glyph-name="zcaron" horiz-adv-x="492" 
d="M61 0v56l320 397h-320v47h374v-55l-320 -397h323v-48h-377zM265 554h-30l-112 129l28 24l100 -117l99 117l27 -24z" />
    <glyph glyph-name="zcaron" unicode="&#x17e;" horiz-adv-x="492" 
d="M61 0v56l320 397h-320v47h374v-55l-320 -397h323v-48h-377zM265 554h-30l-112 129l28 24l100 -117l99 117l27 -24z" />
    <glyph glyph-name="exclamdown" unicode="&#xa1;" horiz-adv-x="307" 
d="M101 429v76h76v-76h-76zM107 -204v194l14 288h34l14 -288v-194h-62z" />
    <glyph glyph-name="cent" unicode="&#xa2;" 
d="M494 270q-3 -36 -16.5 -68t-36 -56.5t-53.5 -40t-69 -18.5v-87h-41v88q-39 4 -70 19.5t-54 38.5q-39 39 -53.5 89.5t-14.5 113.5t14.5 114t53.5 90q23 23 54 38.5t70 19.5v98h41v-98q37 -3 67.5 -17.5t53 -38t36 -55t16.5 -69.5h-52q-5 52 -37 88.5t-84 42.5v-425
q54 6 86 44t37 89h52v0zM278 562q-28 -3 -50 -14t-38 -28q-34 -35 -43.5 -78.5t-9.5 -92.5t9.5 -93t43.5 -79q32 -34 88 -40v425z" />
    <glyph glyph-name="sterling" unicode="&#xa3;" horiz-adv-x="578" 
d="M537 156q-2 -76 -45 -116t-112 -40h-327v55q38 3 59.5 25t21.5 67v201h-83v45h83v116q0 53 14.5 90.5t40 62.5t59.5 36.5t73 11.5q45 0 78.5 -15.5t56 -41t33.5 -57.5t11 -66h-48q0 27 -8 51t-24.5 42.5t-42 29.5t-59.5 11q-40 0 -66 -12.5t-41 -34.5t-21 -50t-6 -60
v-114h182v-45h-182v-206q0 -12 -2 -26t-7 -26.5t-14.5 -22.5t-23.5 -16v-2h243q57 0 82.5 31.5t27.5 75.5h47v0z" />
    <glyph glyph-name="currency" unicode="&#xa4;" 
d="M546 -8l-69 80q-28 -22 -62.5 -34.5t-73.5 -12.5q-40 0 -74.5 12t-62.5 35l-69 -80l-40 39l80 70q-26 30 -40.5 69t-14.5 83q0 43 13.5 81t38.5 68l-77 67l40 40l67 -78q28 23 63 36t76 13t76 -13t63 -36l66 78l40 -40l-77 -67q25 -30 39 -68t14 -81q0 -44 -14.5 -82.5
t-40.5 -69.5l79 -70zM515 253q0 37 -13 70t-36 58t-55 39.5t-70 14.5t-70 -14.5t-55 -39.5t-36 -58t-13 -70t13 -70.5t36 -58.5t55 -39.5t70 -14.5t70 14.5t55 39.5t36 58.5t13 70.5z" />
    <glyph glyph-name="yen" unicode="&#xa5;" 
d="M329 317h165v-40h-188l-1 -2v-101h189v-41h-189v-133h-50v133h-168v41h168v101l-1 2h-167v40h144l-216 378h55l212 -370l211 370h52z" />
    <glyph glyph-name="brokenbar" unicode="&#xa6;" horiz-adv-x="264" 
d="M108 438v321h48v-321h-48zM108 -50v318h48v-318h-48z" />
    <glyph glyph-name="section" unicode="&#xa7;" horiz-adv-x="545" 
d="M477 152q0 -36 -21 -73t-64 -62q47 -51 47 -109q0 -34 -12.5 -60t-32.5 -46q-24 -23 -55 -35t-65 -12q-38 0 -69.5 13t-52.5 34q-49 50 -49 130h52q0 -29 8 -54t27 -45q14 -14 35 -22.5t49 -8.5q49 0 80 28q16 14 25 33t9 42q0 32 -13 54t-36 42l-206 180
q-32 28 -46 59.5t-14 73.5q0 36 21 73t64 62q-47 51 -47 109q0 34 12.5 60t32.5 46q24 23 55 35t65 12q38 0 69.5 -13t52.5 -34q49 -50 49 -128h-52q0 29 -8 53t-27 44q-14 14 -35 22.5t-49 8.5q-49 0 -80 -28q-16 -14 -25 -33t-9 -42q0 -32 13 -54t36 -42l206 -180
q32 -28 46 -59.5t14 -73.5zM430 147q0 32 -9.5 54.5t-35.5 45.5l-195 171q-32 -17 -51 -43.5t-19 -55.5q0 -32 9.5 -54.5t35.5 -45.5l195 -171q32 17 51 43.5t19 55.5z" />
    <glyph glyph-name="dieresis" unicode="&#xa8;" horiz-adv-x="291" 
d="M207 623v63h61v-63h-61zM23 623v63h60v-63h-60z" />
    <glyph glyph-name="copyright" unicode="&#xa9;" horiz-adv-x="880" 
d="M807 354q0 -76 -28.5 -143.5t-78.5 -118t-116.5 -79.5t-143.5 -29q-76 0 -143 29t-117 79.5t-78.5 118t-28.5 143.5q0 77 28.5 144t78.5 117.5t117 79.5t143 29q77 0 143.5 -29t116.5 -79.5t78.5 -117.5t28.5 -144zM759 354q0 68 -24.5 127t-67.5 103.5t-101.5 70
t-125.5 25.5t-125.5 -25.5t-101.5 -70t-67.5 -103.5t-24.5 -127q0 -67 24.5 -126.5t67.5 -103.5t101.5 -69.5t125.5 -25.5t125.5 25.5t101.5 69.5t67.5 103.5t24.5 126.5zM606 299q-3 -35 -16.5 -62.5t-35 -46t-49.5 -28.5t-59 -10q-45 0 -78.5 16t-56 43t-33.5 63.5
t-11 77.5t11 77.5t33.5 64t56 43.5t78.5 16q31 0 59 -10t49.5 -28.5t35 -46t16.5 -62.5h-51q-4 46 -34 72.5t-75 26.5q-34 0 -58 -12t-39.5 -32.5t-22.5 -48.5t-7 -60t7 -59.5t22.5 -48t39.5 -32.5t58 -12q45 0 75 26.5t34 72.5h51v0z" />
    <glyph glyph-name="ordfeminine" unicode="&#xaa;" horiz-adv-x="490" 
d="M418 317q-8 -2 -10 -2h-9q-35 0 -47.5 20.5t-13.5 49.5q-7 -16 -20 -30.5t-30.5 -25t-38.5 -16.5t-44 -6q-28 0 -52 8t-42 23t-28.5 37t-10.5 50q0 51 34.5 80.5t91.5 33.5l140 10v36q0 47 -28 66.5t-72 19.5q-45 0 -74 -21t-32 -63h-40q4 59 44 90.5t102 31.5
q20 0 39.5 -3.5t37 -12t31.5 -22t22 -33.5q7 -18 8.5 -36t1.5 -37v-173q0 -20 5 -30.5t24 -10.5q6 0 11 1v-35v0zM338 512l-137 -8q-42 -2 -65 -23t-23 -56q0 -41 26.5 -61t68.5 -20q35 0 59.5 13.5t40.5 35t23 48.5t7 54v17z" />
    <glyph glyph-name="guillemotleft" unicode="&#xab;" horiz-adv-x="524" 
d="M425 72l-162 219l162 219l34 -25l-137 -194l137 -193zM217 72l-162 219l162 219l33 -25l-136 -194l136 -193z" />
    <glyph glyph-name="logicalnot" unicode="&#xac;" horiz-adv-x="620" 
d="M480 119v160h-417v46h464v-206h-47z" />
    <glyph glyph-name="registered" unicode="&#xae;" horiz-adv-x="880" 
d="M807 354q0 -76 -28.5 -143.5t-78.5 -118t-116.5 -79.5t-143.5 -29q-76 0 -143 29t-117 79.5t-78.5 118t-28.5 143.5q0 77 28.5 144t78.5 117.5t117 79.5t143 29q77 0 143.5 -29t116.5 -79.5t78.5 -117.5t28.5 -144zM759 354q0 68 -24.5 127t-67.5 103.5t-101.5 70
t-125.5 25.5t-125.5 -25.5t-101.5 -70t-67.5 -103.5t-24.5 -127q0 -67 24.5 -126.5t67.5 -103.5t101.5 -69.5t125.5 -25.5t125.5 25.5t101.5 69.5t67.5 103.5t24.5 126.5zM587 429q0 -37 -19 -67.5t-57 -44.5l72 -157h-54l-66 147h-97v-147h-47v393h137q33 0 57.5 -10
t41 -27.5t24.5 -40t8 -46.5zM539 430q0 28 -19 51.5t-64 23.5h-90v-150h89q45 0 64.5 23.5t19.5 51.5z" />
    <glyph glyph-name="macron" unicode="&#xaf;" horiz-adv-x="296" 
d="M17 616v47h262v-47h-262z" />
    <glyph glyph-name="degree" unicode="&#xb0;" horiz-adv-x="477" 
d="M404 557q0 -34 -13 -64.5t-35.5 -53t-52.5 -35.5t-64 -13t-64.5 13t-53 35.5t-35.5 53t-13 64.5t13 64.5t35.5 53t53 35.5t64.5 13t64 -13t52.5 -35.5t35.5 -53t13 -64.5zM358 557q0 26 -9 48t-25 38.5t-37.5 26t-47.5 9.5q-25 0 -47 -9.5t-38.5 -26t-25.5 -38.5t-9 -48
q0 -25 9 -47.5t25.5 -39t38.5 -26t47 -9.5q26 0 47.5 9.5t37.5 26t25 39t9 47.5z" />
    <glyph glyph-name="plusminus" unicode="&#xb1;" horiz-adv-x="570" 
d="M309 352v-197h-47v197h-189v44h189v191h47v-191h188v-44h-188zM73 0v44h424v-44h-424z" />
    <glyph glyph-name="twosuperior" unicode="&#xb2;" horiz-adv-x="411" 
d="M78 351l-1 37l157 143q18 17 31 35t13 41q0 32 -22.5 48.5t-53.5 16.5q-41 0 -60.5 -24t-19.5 -59h-49q0 26 9 49t25.5 40.5t40.5 27.5t54 10q24 0 46.5 -7t40 -20.5t27.5 -34t10 -47.5q0 -39 -23.5 -67t-50.5 -53l-102 -93h188v-43h-260z" />
    <glyph glyph-name="threesuperior" unicode="&#xb3;" horiz-adv-x="420" 
d="M347 446q0 -36 -19 -61q-17 -25 -47.5 -36.5t-69.5 -11.5q-25 0 -49 8t-43 24t-31.5 39.5t-14.5 54.5h46q3 -41 27.5 -62.5t64.5 -21.5q24 0 44 6t32 21q14 17 14 43t-19.5 43.5t-57.5 17.5h-30v42h30q35 0 51.5 15.5t16.5 41.5q0 14 -4.5 24.5t-12.5 18.5q-22 23 -62 23
t-63.5 -20t-25.5 -60h-47q5 58 42.5 89.5t93.5 31.5q67 0 102 -40q11 -13 18 -28.5t7 -35.5q0 -25 -14 -49t-40 -32q32 -11 46.5 -33.5t14.5 -51.5z" />
    <glyph glyph-name="acute" unicode="&#xb4;" horiz-adv-x="243" 
d="M52 565l-17 27l158 116l28 -44z" />
    <glyph glyph-name="mu" unicode="&#xb5;" horiz-adv-x="593" 
d="M450 0l-6 91q-10 -24 -28 -43t-40.5 -32.5t-48.5 -21t-52 -7.5q-52 0 -81 15t-45 34v-236h-50v700h50v-327q0 -66 30 -101.5t99 -35.5q46 0 78 18.5t51.5 48.5t28 68.5t8.5 78.5v250h50v-500h-44z" />
    <glyph glyph-name="paragraph" unicode="&#xb6;" horiz-adv-x="674" 
d="M489 660v-785h-49v785h-139v-785h-49v477q-37 0 -69 14t-56 38t-38 56t-14 69t14 69.5t38 57t56 38.5t69 14h337v-48h-100z" />
    <glyph glyph-name="periodcentered" unicode="&#xb7;" horiz-adv-x="284" 
d="M90 255v90h88v-90h-88z" />
    <glyph glyph-name="cedilla" unicode="&#xb8;" horiz-adv-x="174" 
d="M80 -218l-53 25l72 135h47z" />
    <glyph glyph-name="onesuperior" unicode="&#xb9;" horiz-adv-x="311" 
d="M161 345v308l-98 -74v54l100 76h45v-364h-47z" />
    <glyph glyph-name="ordmasculine" unicode="&#xba;" horiz-adv-x="490" 
d="M410 507q0 -48 -11 -87t-41 -69q-20 -20 -48 -32.5t-64 -12.5t-64.5 12.5t-48.5 32.5q-30 30 -41 69t-11 87t11 87t41 69q20 20 48.5 32.5t64.5 12.5t64 -12.5t48 -32.5q30 -30 41 -69t11 -87zM369 507q0 37 -7 70t-33 59q-14 15 -35 24t-48 9t-49 -9t-36 -24
q-26 -26 -32.5 -59t-6.5 -70t6.5 -70t32.5 -59q30 -32 85 -32q53 0 83 32q26 26 33 59t7 70z" />
    <glyph glyph-name="guillemotright" unicode="&#xbb;" horiz-adv-x="524" 
d="M307 72l-34 26l137 193l-137 194l34 25l162 -219zM99 72l-34 26l137 193l-137 194l34 25l161 -219z" />
    <glyph glyph-name="onequarter" unicode="&#xbc;" horiz-adv-x="849" 
d="M712 81v-81h-47v81h-186v49l157 241h54l-163 -246h138v83h47v-83h64v-44h-64zM189 -12l-35 27l517 704l36 -25zM201 345v308l-98 -74v54l100 76h45v-364h-47z" />
    <glyph glyph-name="onehalf" unicode="&#xbd;" horiz-adv-x="919" 
d="M546 0v37l156 144q17 17 31 35t14 41q0 32 -22.5 48t-53.5 16q-41 0 -61 -24t-20 -59h-48q0 26 9 49t25.5 40.5t40.5 28t54 10.5q24 0 46.5 -7t40 -20.5t27.5 -34t10 -47.5q0 -39 -23 -67t-51 -53l-103 -93h188v-44h-260zM186 -12l-35 27l517 704l36 -25zM196 345v308
l-98 -74v54l100 76h45v-364h-47z" />
    <glyph glyph-name="threequarters" unicode="&#xbe;" horiz-adv-x="891" 
d="M754 81v-81h-47v81h-186v49l157 241h54l-163 -246h138v83h47v-83h64v-44h-64zM234 -12l-35 27l517 704l36 -25zM350 446q0 -36 -19 -61q-17 -25 -47.5 -36.5t-69.5 -11.5q-25 0 -49 8t-43 24t-31.5 39.5t-14.5 54.5h46q3 -41 27.5 -62.5t64.5 -21.5q24 0 44 6t32 21
q14 17 14 43t-19.5 43.5t-57.5 17.5h-30v42h30q35 0 51.5 15.5t16.5 41.5q0 14 -4.5 24.5t-12.5 18.5q-22 23 -62 23t-63.5 -20t-25.5 -60h-47q5 58 42.5 89.5t93.5 31.5q67 0 102 -40q11 -13 18 -28.5t7 -35.5q0 -25 -14 -49t-40 -32q32 -11 46.5 -33.5t14.5 -51.5z" />
    <glyph glyph-name="questiondown" unicode="&#xbf;" horiz-adv-x="488" 
d="M204 426v78h79v-78h-79zM448 -11q0 -48 -16 -86.5t-44.5 -66t-68.5 -42.5t-88 -15q-45 0 -84 15.5t-66 44.5q-23 24 -37 54.5t-14 68.5q0 63 29.5 105.5t76.5 72.5q26 17 42 31.5t25 32t12 39.5t3 53h52q0 -39 -5.5 -67.5t-18.5 -51t-34.5 -42t-53.5 -41.5
q-72 -48 -72 -129q0 -63 40.5 -99t104.5 -36q78 0 120 41t42 118h55v0z" />
    <glyph glyph-name="Agrave" unicode="&#xc0;" horiz-adv-x="608" 
d="M376 788l-176 105l29 47l165 -123zM547 0l-72 187h-343l-70 -187h-54l269 709h51l272 -709h-53zM302 637l-151 -401h305z" />
    <glyph glyph-name="Aacute" unicode="&#xc1;" horiz-adv-x="608" 
d="M8 0zM547 0l-72 187h-343l-70 -187h-54l269 709h51l272 -709h-53zM302 637l-151 -401h305zM219 768l-17 27l158 116l28 -44z" />
    <glyph glyph-name="Acircumflex" unicode="&#xc2;" horiz-adv-x="608" 
d="M8 0zM547 0l-72 187h-343l-70 -187h-54l269 709h51l272 -709h-53zM302 637l-151 -401h305zM410 763l-111 131l-110 -131l-31 27l125 143h33l125 -143z" />
    <glyph glyph-name="Atilde" unicode="&#xc3;" horiz-adv-x="608" 
d="M442 838q-18 -17 -38.5 -29.5t-46.5 -12.5q-19 0 -36 6.5t-33 15t-31.5 15t-32.5 6.5t-30 -7t-25 -18l-24 26q19 17 39 30t47 13q19 0 35.5 -6.5t32.5 -15t31 -15t31 -6.5q17 0 30.5 7t26.5 18l24 -27v0zM547 0l-72 187h-343l-70 -187h-54l269 709h51l272 -709h-53z
M302 637l-151 -401h305z" />
    <glyph glyph-name="Adieresis" unicode="&#xc4;" horiz-adv-x="608" 
d="M8 0zM547 0l-72 187h-343l-70 -187h-54l269 709h51l272 -709h-53zM302 637l-151 -401h305zM362 793v63h61v-63h-61zM178 793v63h60v-63h-60z" />
    <glyph glyph-name="Aring" unicode="&#xc5;" horiz-adv-x="608" 
d="M547 0l-72 187h-343l-70 -187h-54l257 678q-32 11 -52.5 39t-20.5 66q0 47 29.5 78t82.5 31t82.5 -31t29.5 -78q0 -39 -21.5 -67t-54.5 -39l260 -677h-53zM376 782q0 30 -19.5 52t-52.5 22t-52.5 -22t-19.5 -52t19.5 -51.5t52.5 -21.5t52.5 21.5t19.5 51.5zM302 637
l-151 -401h305z" />
    <glyph glyph-name="AE" unicode="&#xc6;" horiz-adv-x="887" 
d="M434 0v198h-292l-86 -198h-56l314 709h519v-48h-348v-258h298v-49h-298v-305h348v-49h-399zM434 661h-89l-181 -415h270v415z" />
    <glyph glyph-name="Ccedilla" unicode="&#xc7;" horiz-adv-x="623" 
d="M580 217q-4 -49 -24 -91t-53 -73t-77.5 -48.5t-97.5 -17.5q-51 0 -100.5 20t-86.5 57q-28 29 -45 64t-25 72.5t-10.5 77t-2.5 77.5t2.5 77t10.5 77t25 72.5t45 63.5q37 37 86.5 57t100.5 20q53 0 97.5 -17.5t77.5 -48.5t53 -73t24 -91h-54q-3 39 -19 72t-41.5 57
t-60.5 37t-77 13q-48 0 -84 -16t-65 -45q-24 -25 -37.5 -56t-20 -64.5t-8 -68t-1.5 -66.5t1.5 -66.5t8.5 -68.5t20.5 -65t37.5 -56q59 -61 148 -61q42 0 77 13t60.5 37t41.5 57t19 72h54v0zM297 -208l-53 25l72 135h47z" />
    <glyph glyph-name="Egrave" unicode="&#xc8;" horiz-adv-x="616" 
d="M108 0zM108 0v709h454v-50h-401v-260h353v-50h-353v-299h401v-50h-454zM401 769l-168 99l27 44l158 -116z" />
    <glyph glyph-name="Eacute" unicode="&#xc9;" horiz-adv-x="616" 
d="M108 0zM108 0v709h454v-50h-401v-260h353v-50h-353v-299h401v-50h-454zM254 768l-17 27l158 116l28 -44z" />
    <glyph glyph-name="Ecircumflex" unicode="&#xca;" horiz-adv-x="616" 
d="M108 0zM108 0v709h454v-50h-401v-260h353v-50h-353v-299h401v-50h-454zM439 768l-111 131l-110 -131l-31 27l125 143h33l125 -143z" />
    <glyph glyph-name="Edieresis" unicode="&#xcb;" horiz-adv-x="616" 
d="M108 0zM108 0v709h454v-50h-401v-260h353v-50h-353v-299h401v-50h-454zM390 813v63h61v-63h-61zM206 813v63h60v-63h-60z" />
    <glyph glyph-name="Igrave" unicode="&#xcc;" horiz-adv-x="269" 
d="M108 0v709h53v-709h-53zM201 764l-168 99l27 44l158 -116z" />
    <glyph glyph-name="Iacute" unicode="&#xcd;" horiz-adv-x="269" 
d="M108 0v709h53v-709h-53zM57 768l-17 27l158 116l28 -44z" />
    <glyph glyph-name="Icircumflex" unicode="&#xce;" horiz-adv-x="269" 
d="M108 0v709h53v-709h-53zM247 763l-111 131l-110 -131l-31 27l125 143h33l125 -143z" />
    <glyph glyph-name="Idieresis" unicode="&#xcf;" horiz-adv-x="269" 
d="M172 815v63h61v-63h-61zM34 815v63h60v-63h-60zM108 0v709h53v-709h-53z" />
    <glyph glyph-name="Eth" unicode="&#xd0;" horiz-adv-x="681" 
d="M623 355q0 -37 -2.5 -75.5t-11.5 -76t-26 -71.5t-46 -62q-32 -31 -77 -50.5t-102 -19.5h-235v347h-76v42h76v320h235q57 0 102 -19.5t77 -50.5q29 -28 46 -62t26 -71t11.5 -75.5t2.5 -75.5zM570 355q0 32 -2 66t-9 67t-21 63t-39 54q-27 26 -64 39.5t-77 13.5h-183v-269
h170v-42h-170v-296h183q40 0 77 13.5t64 39.5q25 24 39 54.5t21 63.5t9 67t2 66z" />
    <glyph glyph-name="Ntilde" unicode="&#xd1;" horiz-adv-x="738" 
d="M108 0zM571 0l-411 628v-628h-52v709h59l412 -627v627h51v-709h-59zM507 810q-18 -16 -37 -28t-45 -12q-18 0 -34 6.5t-31 14t-30.5 14t-31.5 6.5t-28.5 -6.5t-23.5 -16.5l-23 24q18 17 37 29t45 12q18 0 34 -6.5t31 -14t29.5 -14t29.5 -6.5q17 0 29.5 6t24.5 17l24 -25
v0z" />
    <glyph glyph-name="Ograve" unicode="&#xd2;" horiz-adv-x="658" 
d="M600 355q0 -38 -2.5 -78.5t-12 -79t-27 -74t-47.5 -64.5q-33 -32 -78.5 -52t-103.5 -20t-103.5 20t-78.5 52q-30 29 -47.5 64.5t-27 74t-12 79t-2.5 78.5t2.5 78t12 78.5t27 74t47.5 64.5q33 32 78.5 52t103.5 20t103.5 -20t78.5 -52q30 -29 47.5 -64.5t27 -74t12 -78.5
t2.5 -78zM546 355q0 32 -1.5 67t-8.5 70t-22 67t-41 57q-28 27 -65 41t-79 14t-79 -14t-65 -41q-26 -25 -41 -57t-22 -67t-8.5 -70t-1.5 -67q0 -31 1.5 -66.5t8.5 -70.5t22 -67.5t41 -57.5q28 -27 65 -41t79 -14t79 14t65 41q26 25 41 57.5t22 67.5t8.5 70.5t1.5 66.5z
M399 769l-168 99l27 44l158 -116z" />
    <glyph glyph-name="Oacute" unicode="&#xd3;" horiz-adv-x="658" 
d="M600 355q0 -38 -2.5 -78.5t-12 -79t-27 -74t-47.5 -64.5q-33 -32 -78.5 -52t-103.5 -20t-103.5 20t-78.5 52q-30 29 -47.5 64.5t-27 74t-12 79t-2.5 78.5t2.5 78t12 78.5t27 74t47.5 64.5q33 32 78.5 52t103.5 20t103.5 -20t78.5 -52q30 -29 47.5 -64.5t27 -74t12 -78.5
t2.5 -78zM546 355q0 32 -1.5 67t-8.5 70t-22 67t-41 57q-28 27 -65 41t-79 14t-79 -14t-65 -41q-26 -25 -41 -57t-22 -67t-8.5 -70t-1.5 -67q0 -31 1.5 -66.5t8.5 -70.5t22 -67.5t41 -57.5q28 -27 65 -41t79 -14t79 14t65 41q26 25 41 57.5t22 67.5t8.5 70.5t1.5 66.5z
M247 773l-17 27l158 116l28 -44z" />
    <glyph glyph-name="Ocircumflex" unicode="&#xd4;" horiz-adv-x="658" 
d="M600 355q0 -38 -2.5 -78.5t-12 -79t-27 -74t-47.5 -64.5q-33 -32 -78.5 -52t-103.5 -20t-103.5 20t-78.5 52q-30 29 -47.5 64.5t-27 74t-12 79t-2.5 78.5t2.5 78t12 78.5t27 74t47.5 64.5q33 32 78.5 52t103.5 20t103.5 -20t78.5 -52q30 -29 47.5 -64.5t27 -74t12 -78.5
t2.5 -78zM546 355q0 32 -1.5 67t-8.5 70t-22 67t-41 57q-28 27 -65 41t-79 14t-79 -14t-65 -41q-26 -25 -41 -57t-22 -67t-8.5 -70t-1.5 -67q0 -31 1.5 -66.5t8.5 -70.5t22 -67.5t41 -57.5q28 -27 65 -41t79 -14t79 14t65 41q26 25 41 57.5t22 67.5t8.5 70.5t1.5 66.5z
M433 763l-111 131l-110 -131l-31 27l125 143h33l125 -143z" />
    <glyph glyph-name="Otilde" unicode="&#xd5;" horiz-adv-x="658" 
d="M469 837q-19 -17 -39.5 -29.5t-46.5 -12.5q-18 0 -35 6.5t-33 15t-32 15t-33 6.5t-30 -7t-25 -18l-23 26q19 17 38.5 30t46.5 13q19 0 36 -6.5t32.5 -15t30.5 -15t31 -6.5q17 0 31 6.5t26 17.5l25 -26v0zM600 355q0 -38 -2.5 -78.5t-12 -79t-27 -74t-47.5 -64.5
q-33 -32 -78.5 -52t-103.5 -20t-103.5 20t-78.5 52q-30 29 -47.5 64.5t-27 74t-12 79t-2.5 78.5t2.5 78t12 78.5t27 74t47.5 64.5q33 32 78.5 52t103.5 20t103.5 -20t78.5 -52q30 -29 47.5 -64.5t27 -74t12 -78.5t2.5 -78zM546 355q0 32 -1.5 67t-8.5 70t-22 67t-41 57
q-28 27 -65 41t-79 14t-79 -14t-65 -41q-26 -25 -41 -57t-22 -67t-8.5 -70t-1.5 -67q0 -31 1.5 -66.5t8.5 -70.5t22 -67.5t41 -57.5q28 -27 65 -41t79 -14t79 14t65 41q26 25 41 57.5t22 67.5t8.5 70.5t1.5 66.5z" />
    <glyph glyph-name="Odieresis" unicode="&#xd6;" horiz-adv-x="658" 
d="M600 355q0 -38 -2.5 -78.5t-12 -79t-27 -74t-47.5 -64.5q-33 -32 -78.5 -52t-103.5 -20t-103.5 20t-78.5 52q-30 29 -47.5 64.5t-27 74t-12 79t-2.5 78.5t2.5 78t12 78.5t27 74t47.5 64.5q33 32 78.5 52t103.5 20t103.5 -20t78.5 -52q30 -29 47.5 -64.5t27 -74t12 -78.5
t2.5 -78zM546 355q0 32 -1.5 67t-8.5 70t-22 67t-41 57q-28 27 -65 41t-79 14t-79 -14t-65 -41q-26 -25 -41 -57t-22 -67t-8.5 -70t-1.5 -67q0 -31 1.5 -66.5t8.5 -70.5t22 -67.5t41 -57.5q28 -27 65 -41t79 -14t79 14t65 41q26 25 41 57.5t22 67.5t8.5 70.5t1.5 66.5z
M385 795v63h61v-63h-61zM201 795v63h60v-63h-60z" />
    <glyph glyph-name="multiply" unicode="&#xd7;" horiz-adv-x="675" 
d="M571 32l-234 234l-233 -234l-31 31l234 234l-234 233l31 31l233 -233l234 233l31 -31l-234 -233l234 -234z" />
    <glyph glyph-name="Oslash" unicode="&#xd8;" horiz-adv-x="658" 
d="M600 355q0 -38 -2.5 -78.5t-12 -79t-27 -74t-47.5 -64.5q-33 -32 -78.5 -52t-103.5 -20q-37 0 -68.5 8.5t-58.5 22.5l-39 -87l-39 17l42 94q-5 5 -9.5 8.5t-9.5 8.5q-30 29 -47.5 64.5t-27 74t-12 79t-2.5 78.5t2.5 78t12 78.5t27 74t47.5 64.5q33 32 78.5 52t103.5 20
q37 0 69 -8.5t58 -23.5l35 78l39 -18l-38 -84q11 -7 19 -16q30 -29 47.5 -64.5t27 -74t12 -78.5t2.5 -78zM546 355q0 32 -1.5 67t-8.5 70t-22 67t-41 57l-2 2l-248 -553q47 -27 106 -27q42 0 79 14t65 41q26 25 41 57.5t22 67.5t8.5 70.5t1.5 66.5zM435 644q-46 27 -106 27
q-42 0 -79 -14t-65 -41q-26 -25 -41 -57t-22 -67t-8.5 -70t-1.5 -67q0 -31 1.5 -67t8.5 -71t21.5 -67t41.5 -57l3 -3l247 554v0z" />
    <glyph glyph-name="Ugrave" unicode="&#xd9;" horiz-adv-x="693" 
d="M95 0zM598 260q0 -58 -15.5 -108t-47 -87t-78.5 -57.5t-111 -20.5t-111 20.5t-78 57.5t-46.5 87t-15.5 108v449h52v-450q0 -46 11.5 -86.5t36 -70.5t62 -47.5t89.5 -17.5t90 17.5t62.5 47.5t36 70.5t11.5 86.5v450h52v-449v0zM401 764l-168 99l27 44l158 -116z" />
    <glyph glyph-name="Uacute" unicode="&#xda;" horiz-adv-x="693" 
d="M95 0zM598 260q0 -58 -15.5 -108t-47 -87t-78.5 -57.5t-111 -20.5t-111 20.5t-78 57.5t-46.5 87t-15.5 108v449h52v-450q0 -46 11.5 -86.5t36 -70.5t62 -47.5t89.5 -17.5t90 17.5t62.5 47.5t36 70.5t11.5 86.5v450h52v-449v0zM271 768l-17 27l158 116l28 -44z" />
    <glyph glyph-name="Ucircumflex" unicode="&#xdb;" horiz-adv-x="693" 
d="M95 0zM598 260q0 -58 -15.5 -108t-47 -87t-78.5 -57.5t-111 -20.5t-111 20.5t-78 57.5t-46.5 87t-15.5 108v449h52v-450q0 -46 11.5 -86.5t36 -70.5t62 -47.5t89.5 -17.5t90 17.5t62.5 47.5t36 70.5t11.5 86.5v450h52v-449v0zM453 763l-111 131l-110 -131l-31 27l125 143
h33l125 -143z" />
    <glyph glyph-name="Udieresis" unicode="&#xdc;" horiz-adv-x="693" 
d="M95 0zM598 260q0 -58 -15.5 -108t-47 -87t-78.5 -57.5t-111 -20.5t-111 20.5t-78 57.5t-46.5 87t-15.5 108v449h52v-450q0 -46 11.5 -86.5t36 -70.5t62 -47.5t89.5 -17.5t90 17.5t62.5 47.5t36 70.5t11.5 86.5v450h52v-449v0zM408 794v63h61v-63h-61zM224 794v63h60v-63
h-60z" />
    <glyph glyph-name="Yacute" unicode="&#xdd;" horiz-adv-x="545" 
d="M2 0zM298 281v-281h-51v281l-245 428h56l216 -377l216 377h53zM200 758l-17 27l158 116l28 -44z" />
    <glyph glyph-name="Thorn" unicode="&#xde;" horiz-adv-x="598" 
d="M570 361q0 -54 -17.5 -93.5t-48.5 -65.5t-74 -38.5t-94 -12.5h-176v-151h-52v709h52v-139h176q51 0 94 -12.5t74 -38.5t48.5 -65t17.5 -93zM516 361q0 42 -13.5 71.5t-37.5 49t-57 28.5t-72 9h-176v-317h176q39 0 72 9t57 28.5t37.5 49.5t13.5 72z" />
    <glyph glyph-name="germandbls" unicode="&#xdf;" horiz-adv-x="593" 
d="M549 208q0 -49 -17.5 -88.5t-47.5 -67.5t-71 -43t-89 -15q-36 0 -74 6v48q18 -2 35.5 -3.5t34.5 -1.5q38 0 70 10.5t55.5 31.5t37 51t13.5 69q0 82 -50 122t-128 40h-40v49h40q67 0 98 36.5t31 94.5q0 30 -11.5 54t-30.5 40.5t-44 25.5t-52 9q-36 0 -63 -12t-44.5 -33.5
t-26 -50.5t-8.5 -63v-517h-50v452h-89v48h89v17q0 45 12.5 82.5t37 65.5t60.5 43.5t82 15.5q39 0 74 -12.5t60.5 -36t40.5 -56t15 -73.5q0 -22 -5.5 -45t-17 -43.5t-28 -36t-39.5 -23.5q33 -9 59 -27t44 -43t27.5 -56t9.5 -64z" />
    <glyph glyph-name="agrave" unicode="&#xe0;" horiz-adv-x="561" 
d="M513 0q-9 -2 -12 -2.5t-12 -0.5q-46 0 -62.5 29t-16.5 69q-10 -27 -28.5 -47t-42.5 -33.5t-52 -20.5t-57 -7q-36 0 -67.5 10.5t-55 30.5t-36.5 48.5t-13 64.5q0 67 46.5 105.5t121.5 43.5l184 13v49q0 62 -37.5 88t-94.5 26q-60 0 -100 -27t-44 -83h-50q3 38 18.5 67
t41 49t60 30.5t74.5 10.5q26 0 51.5 -4.5t48.5 -15.5t41 -28.5t28 -43.5q9 -23 11 -47t2 -49v-228q0 -26 6.5 -40t32.5 -14q9 0 14 1v-44v0zM410 257l-179 -11q-56 -4 -89 -31.5t-33 -73.5q0 -54 35.5 -81t89.5 -27q47 0 80.5 17.5t54.5 45.5t31 63.5t10 71.5v26zM183 668
l28 44l158 -117l-17 -27z" />
    <glyph glyph-name="aacute" unicode="&#xe1;" horiz-adv-x="561" 
d="M58 0zM513 0q-9 -2 -12 -2.5t-12 -0.5q-46 0 -62.5 29t-16.5 69q-10 -27 -28.5 -47t-42.5 -33.5t-52 -20.5t-57 -7q-36 0 -67.5 10.5t-55 30.5t-36.5 48.5t-13 64.5q0 67 46.5 105.5t121.5 43.5l184 13v49q0 62 -37.5 88t-94.5 26q-60 0 -100 -27t-44 -83h-50
q3 38 18.5 67t41 49t60 30.5t74.5 10.5q26 0 51.5 -4.5t48.5 -15.5t41 -28.5t28 -43.5q9 -23 11 -47t2 -49v-228q0 -26 6.5 -40t32.5 -14q9 0 14 1v-44v0zM410 257l-179 -11q-56 -4 -89 -31.5t-33 -73.5q0 -54 35.5 -81t89.5 -27q47 0 80.5 17.5t54.5 45.5t31 63.5t10 71.5
v26zM197 569l-17 27l158 116l28 -44z" />
    <glyph glyph-name="acircumflex" unicode="&#xe2;" horiz-adv-x="561" 
d="M58 0zM513 0q-9 -2 -12 -2.5t-12 -0.5q-46 0 -62.5 29t-16.5 69q-10 -27 -28.5 -47t-42.5 -33.5t-52 -20.5t-57 -7q-36 0 -67.5 10.5t-55 30.5t-36.5 48.5t-13 64.5q0 67 46.5 105.5t121.5 43.5l184 13v49q0 62 -37.5 88t-94.5 26q-60 0 -100 -27t-44 -83h-50
q3 38 18.5 67t41 49t60 30.5t74.5 10.5q26 0 51.5 -4.5t48.5 -15.5t41 -28.5t28 -43.5q9 -23 11 -47t2 -49v-228q0 -26 6.5 -40t32.5 -14q9 0 14 1v-44v0zM410 257l-179 -11q-56 -4 -89 -31.5t-33 -73.5q0 -54 35.5 -81t89.5 -27q47 0 80.5 17.5t54.5 45.5t31 63.5t10 71.5
v26zM390 562l-111 131l-110 -131l-31 27l125 143h33l125 -143z" />
    <glyph glyph-name="atilde" unicode="&#xe3;" horiz-adv-x="561" 
d="M58 0zM513 0q-9 -2 -12 -2.5t-12 -0.5q-46 0 -62.5 29t-16.5 69q-10 -27 -28.5 -47t-42.5 -33.5t-52 -20.5t-57 -7q-36 0 -67.5 10.5t-55 30.5t-36.5 48.5t-13 64.5q0 67 46.5 105.5t121.5 43.5l184 13v49q0 62 -37.5 88t-94.5 26q-60 0 -100 -27t-44 -83h-50
q3 38 18.5 67t41 49t60 30.5t74.5 10.5q26 0 51.5 -4.5t48.5 -15.5t41 -28.5t28 -43.5q9 -23 11 -47t2 -49v-228q0 -26 6.5 -40t32.5 -14q9 0 14 1v-44v0zM410 257l-179 -11q-56 -4 -89 -31.5t-33 -73.5q0 -54 35.5 -81t89.5 -27q47 0 80.5 17.5t54.5 45.5t31 63.5t10 71.5
v26zM412 648q-18 -16 -37 -28t-45 -12q-18 0 -34 6.5t-31 14t-30.5 14t-31.5 6.5t-28.5 -6.5t-23.5 -16.5l-23 24q18 17 37 29t45 12q18 0 34 -6.5t31 -14t29.5 -14t29.5 -6.5q17 0 29.5 6t24.5 17l24 -25v0z" />
    <glyph glyph-name="adieresis" unicode="&#xe4;" horiz-adv-x="561" 
d="M58 0zM513 0q-9 -2 -12 -2.5t-12 -0.5q-46 0 -62.5 29t-16.5 69q-10 -27 -28.5 -47t-42.5 -33.5t-52 -20.5t-57 -7q-36 0 -67.5 10.5t-55 30.5t-36.5 48.5t-13 64.5q0 67 46.5 105.5t121.5 43.5l184 13v49q0 62 -37.5 88t-94.5 26q-60 0 -100 -27t-44 -83h-50
q3 38 18.5 67t41 49t60 30.5t74.5 10.5q26 0 51.5 -4.5t48.5 -15.5t41 -28.5t28 -43.5q9 -23 11 -47t2 -49v-228q0 -26 6.5 -40t32.5 -14q9 0 14 1v-44v0zM410 257l-179 -11q-56 -4 -89 -31.5t-33 -73.5q0 -54 35.5 -81t89.5 -27q47 0 80.5 17.5t54.5 45.5t31 63.5t10 71.5
v26zM342 623v63h61v-63h-61zM158 623v63h60v-63h-60z" />
    <glyph glyph-name="aring" unicode="&#xe5;" horiz-adv-x="561" 
d="M58 0zM513 0q-9 -2 -12 -2.5t-12 -0.5q-46 0 -62.5 29t-16.5 69q-10 -27 -28.5 -47t-42.5 -33.5t-52 -20.5t-57 -7q-36 0 -67.5 10.5t-55 30.5t-36.5 48.5t-13 64.5q0 67 46.5 105.5t121.5 43.5l184 13v49q0 62 -37.5 88t-94.5 26q-60 0 -100 -27t-44 -83h-50
q3 38 18.5 67t41 49t60 30.5t74.5 10.5q26 0 51.5 -4.5t48.5 -15.5t41 -28.5t28 -43.5q9 -23 11 -47t2 -49v-228q0 -26 6.5 -40t32.5 -14q9 0 14 1v-44v0zM410 257l-179 -11q-56 -4 -89 -31.5t-33 -73.5q0 -54 35.5 -81t89.5 -27q47 0 80.5 17.5t54.5 45.5t31 63.5t10 71.5
v26zM382 670q0 -47 -31 -76t-76 -29t-76 29t-31 76q0 45 28 75t79 30t79 -30t28 -75zM343 670q0 29 -18 49.5t-50 20.5t-50.5 -20.5t-18.5 -49.5t18.5 -49.5t50.5 -20.5t50 20.5t18 49.5z" />
    <glyph glyph-name="ae" unicode="&#xe6;" horiz-adv-x="852" 
d="M446 241v-23q0 -37 9.5 -70.5t29 -59t49.5 -40.5t70 -15q56 0 91 30t46 87h51q-13 -75 -62.5 -119t-125.5 -44q-72 0 -116.5 35t-67.5 92q-23 -60 -73.5 -92t-119.5 -32q-36 0 -66.5 10.5t-53.5 30t-36 47t-13 62.5q0 32 13 58.5t35.5 46.5t53.5 31t67 11h168v65
q0 54 -34 84t-95 30q-58 0 -95 -28.5t-41 -84.5h-50q5 75 54.5 117.5t131.5 42.5q24 0 49.5 -5.5t48 -16.5t41 -28t28.5 -41q24 42 65 66.5t102 24.5q44 0 76.5 -13.5t55.5 -36.5q38 -36 54 -89.5t16 -115.5v-17h-356zM751 287q-1 42 -13 78.5t-39 62.5q-18 17 -42.5 27.5
t-56.5 10.5q-39 0 -67 -13.5t-47 -37.5t-28.5 -57t-9.5 -71h303v0zM395 241h-165q-54 0 -88 -28t-34 -73q0 -26 9.5 -45.5t26 -32t38.5 -19t47 -6.5q41 0 72 14.5t52 38.5t31.5 56t10.5 68v27z" />
    <glyph glyph-name="ccedilla" unicode="&#xe7;" horiz-adv-x="512" 
d="M468 158q-5 -36 -21 -67.5t-41.5 -54.5t-59.5 -36t-73 -13q-47 0 -84 16.5t-63 42.5q-39 39 -54.5 89.5t-15.5 114.5t15.5 114.5t54.5 89.5q26 26 63 42.5t84 16.5q39 0 72.5 -12t58.5 -34.5t41.5 -53.5t20.5 -69h-52q-8 52 -46 86t-95 34q-36 0 -63.5 -11.5t-47.5 -31.5
q-34 -35 -44.5 -78.5t-10.5 -92.5t10.5 -93t44.5 -79q40 -42 111 -42q58 0 95.5 35.5t46.5 86.5h53v0zM251 -214l-55 26l75 140h48z" />
    <glyph glyph-name="egrave" unicode="&#xe8;" horiz-adv-x="539" 
d="M489 271q0 -9 -0.5 -16.5t-0.5 -16.5h-382q1 -44 14.5 -82.5t37.5 -67.5q21 -25 50.5 -39t70.5 -14q67 0 109 44q14 14 23.5 31t14.5 40h52q-5 -32 -20 -58.5t-36 -46.5q-27 -27 -63.5 -42.5t-79.5 -15.5q-54 0 -93 20t-66 51q-31 36 -47.5 84.5t-16.5 105.5q0 48 10 93
t39 85q64 87 170 87q51 0 90.5 -20t67 -53.5t42 -77.5t14.5 -91zM438 284q-1 36 -12 68.5t-32 58t-51 40.5t-68 15q-39 0 -70 -14.5t-52.5 -39.5t-33.5 -58t-12 -70h331v0zM183 669l28 44l158 -116l-17 -27z" />
    <glyph glyph-name="eacute" unicode="&#xe9;" horiz-adv-x="539" 
d="M489 271q0 -9 -0.5 -16.5t-0.5 -16.5h-382q1 -44 14.5 -82.5t37.5 -67.5q21 -25 50.5 -39t70.5 -14q67 0 109 44q14 14 23.5 31t14.5 40h52q-5 -32 -20 -58.5t-36 -46.5q-27 -27 -63.5 -42.5t-79.5 -15.5q-54 0 -93 20t-66 51q-31 36 -47.5 84.5t-16.5 105.5q0 48 10 93
t39 85q64 87 170 87q51 0 90.5 -20t67 -53.5t42 -77.5t14.5 -91zM438 284q-1 36 -12 68.5t-32 58t-51 40.5t-68 15q-39 0 -70 -14.5t-52.5 -39.5t-33.5 -58t-12 -70h331v0zM201 567l-17 27l158 116l28 -44z" />
    <glyph glyph-name="ecircumflex" unicode="&#xea;" horiz-adv-x="539" 
d="M489 271q0 -9 -0.5 -16.5t-0.5 -16.5h-382q1 -44 14.5 -82.5t37.5 -67.5q21 -25 50.5 -39t70.5 -14q67 0 109 44q14 14 23.5 31t14.5 40h52q-5 -32 -20 -58.5t-36 -46.5q-27 -27 -63.5 -42.5t-79.5 -15.5q-54 0 -93 20t-66 51q-31 36 -47.5 84.5t-16.5 105.5q0 48 10 93
t39 85q64 87 170 87q51 0 90.5 -20t67 -53.5t42 -77.5t14.5 -91zM438 284q-1 36 -12 68.5t-32 58t-51 40.5t-68 15q-39 0 -70 -14.5t-52.5 -39.5t-33.5 -58t-12 -70h331v0zM388 562l-111 131l-110 -131l-31 27l125 143h33l125 -143z" />
    <glyph glyph-name="edieresis" unicode="&#xeb;" horiz-adv-x="539" 
d="M489 271q0 -9 -0.5 -16.5t-0.5 -16.5h-382q1 -44 14.5 -82.5t37.5 -67.5q21 -25 50.5 -39t70.5 -14q67 0 109 44q14 14 23.5 31t14.5 40h52q-5 -32 -20 -58.5t-36 -46.5q-27 -27 -63.5 -42.5t-79.5 -15.5q-54 0 -93 20t-66 51q-31 36 -47.5 84.5t-16.5 105.5q0 48 10 93
t39 85q64 87 170 87q51 0 90.5 -20t67 -53.5t42 -77.5t14.5 -91zM438 284q-1 36 -12 68.5t-32 58t-51 40.5t-68 15q-39 0 -70 -14.5t-52.5 -39.5t-33.5 -58t-12 -70h331v0zM339 623v63h61v-63h-61zM155 623v63h60v-63h-60z" />
    <glyph glyph-name="igrave" unicode="&#xec;" horiz-adv-x="260" 
d="M104 0v500h52v-500h-52zM24 697l28 44l158 -116l-17 -27z" />
    <glyph glyph-name="iacute" unicode="&#xed;" horiz-adv-x="260" 
d="M104 0v500h52v-500h-52zM60 598l-17 27l158 116l28 -44z" />
    <glyph glyph-name="icircumflex" unicode="&#xee;" horiz-adv-x="260" 
d="M104 0v500h52v-500h-52zM241 586l-111 131l-110 -131l-32 27l125 143h33l126 -143z" />
    <glyph glyph-name="idieresis" unicode="&#xef;" horiz-adv-x="260" 
d="M170 647v63h62v-63h-62zM26 647v63h60v-63h-60zM104 0v500h52v-500h-52z" />
    <glyph glyph-name="eth" unicode="&#xf0;" horiz-adv-x="542" 
d="M486 250q0 -64 -14.5 -114.5t-53.5 -89.5q-26 -26 -63 -42.5t-84 -16.5t-84 16.5t-63 42.5q-39 39 -53.5 89.5t-14.5 114.5t14.5 114.5t53.5 89.5q26 26 63 42.5t84 16.5q21 0 39.5 -3.5t35.5 -9.5l-56 98h-125v40h102l-48 84h57l47 -84h101v-40h-78l111 -197v-1
q16 -32 22.5 -69t6.5 -81zM435 250q0 49 -9.5 92.5t-43.5 78.5q-20 20 -47.5 31.5t-63.5 11.5t-63.5 -11.5t-47.5 -31.5q-34 -35 -43.5 -78.5t-9.5 -92.5t9.5 -93t43.5 -79q40 -42 111 -42t111 42q34 35 43.5 79t9.5 93z" />
    <glyph glyph-name="ntilde" unicode="&#xf1;" horiz-adv-x="583" 
d="M99 0zM444 0v327q0 66 -30 101.5t-99 35.5q-46 0 -78 -18t-51.5 -48t-28 -68.5t-8.5 -79.5v-250h-50v500h44l6 -91q11 24 28.5 43t40 32.5t48.5 21t52 7.5q87 0 131.5 -49t44.5 -134v-330h-50zM433 650q-18 -16 -37 -28t-45 -12q-18 0 -34 6.5t-31 14t-30.5 14t-31.5 6.5
t-28.5 -6.5t-23.5 -16.5l-23 24q18 17 37 29t45 12q18 0 34 -6.5t31 -14t29.5 -14t29.5 -6.5q17 0 29.5 6t24.5 17l24 -25v0z" />
    <glyph glyph-name="ograve" unicode="&#xf2;" horiz-adv-x="546" 
d="M56 0zM490 250q0 -64 -16 -114t-55 -89q-26 -26 -62.5 -43t-83.5 -17t-83.5 17t-62.5 43q-39 39 -55 89t-16 114t16 114t55 89q26 26 62.5 43t83.5 17t83.5 -17t62.5 -43q39 -39 55 -89t16 -114zM439 250q0 49 -11 92t-45 78q-20 20 -47 32t-63 12t-63 -12t-47 -32
q-34 -35 -45 -78t-11 -92t11 -92t45 -78q20 -20 47 -32t63 -12t63 12t47 32q34 35 45 78t11 92zM344 567l-168 99l27 44l158 -116z" />
    <glyph glyph-name="oacute" unicode="&#xf3;" horiz-adv-x="546" 
d="M490 250q0 -64 -16 -114t-55 -89q-26 -26 -62.5 -43t-83.5 -17t-83.5 17t-62.5 43q-39 39 -55 89t-16 114t16 114t55 89q26 26 62.5 43t83.5 17t83.5 -17t62.5 -43q39 -39 55 -89t16 -114zM439 250q0 49 -11 92t-45 78q-20 20 -47 32t-63 12t-63 -12t-47 -32
q-34 -35 -45 -78t-11 -92t11 -92t45 -78q20 -20 47 -32t63 -12t63 12t47 32q34 35 45 78t11 92zM204 568l-17 27l158 116l28 -44z" />
    <glyph glyph-name="ocircumflex" unicode="&#xf4;" horiz-adv-x="546" 
d="M490 250q0 -64 -16 -114t-55 -89q-26 -26 -62.5 -43t-83.5 -17t-83.5 17t-62.5 43q-39 39 -55 89t-16 114t16 114t55 89q26 26 62.5 43t83.5 17t83.5 -17t62.5 -43q39 -39 55 -89t16 -114zM439 250q0 49 -11 92t-45 78q-20 20 -47 32t-63 12t-63 -12t-47 -32
q-34 -35 -45 -78t-11 -92t11 -92t45 -78q20 -20 47 -32t63 -12t63 12t47 32q34 35 45 78t11 92zM385 562l-111 131l-110 -131l-31 27l125 143h33l125 -143z" />
    <glyph glyph-name="otilde" unicode="&#xf5;" horiz-adv-x="546" 
d="M490 250q0 -64 -16 -114t-55 -89q-26 -26 -62.5 -43t-83.5 -17t-83.5 17t-62.5 43q-39 39 -55 89t-16 114t16 114t55 89q26 26 62.5 43t83.5 17t83.5 -17t62.5 -43q39 -39 55 -89t16 -114zM439 250q0 49 -11 92t-45 78q-20 20 -47 32t-63 12t-63 -12t-47 -32
q-34 -35 -45 -78t-11 -92t11 -92t45 -78q20 -20 47 -32t63 -12t63 12t47 32q34 35 45 78t11 92zM416 656q-18 -16 -37.5 -27.5t-44.5 -11.5q-18 0 -34 6.5t-31 14t-30.5 13.5t-31.5 6t-28.5 -6.5t-23.5 -16.5l-23 24q18 17 37 29t45 12q18 0 34 -6.5t31 -14t29.5 -14
t29.5 -6.5q17 0 29.5 6.5t24.5 17.5l24 -26v0z" />
    <glyph glyph-name="odieresis" unicode="&#xf6;" horiz-adv-x="546" 
d="M335 623v63h61v-63h-61zM151 623v63h60v-63h-60zM490 250q0 -64 -16 -114t-55 -89q-26 -26 -62.5 -43t-83.5 -17t-83.5 17t-62.5 43q-39 39 -55 89t-16 114t16 114t55 89q26 26 62.5 43t83.5 17t83.5 -17t62.5 -43q39 -39 55 -89t16 -114zM439 250q0 49 -11 92t-45 78
q-20 20 -47 32t-63 12t-63 -12t-47 -32q-34 -35 -45 -78t-11 -92t11 -92t45 -78q20 -20 47 -32t63 -12t63 12t47 32q34 35 45 78t11 92z" />
    <glyph glyph-name="divide" unicode="&#xf7;" horiz-adv-x="653" 
d="M284 472v84h79v-84h-79zM83 277v46h487v-46h-487zM284 49v83h79v-83h-79z" />
    <glyph glyph-name="oslash" unicode="&#xf8;" horiz-adv-x="546" 
d="M490 250q0 -64 -16 -114t-55 -89q-26 -26 -62.5 -43t-83.5 -17q-44 0 -83 17l-36 -81l-36 16l38 84q-8 5 -15 11t-14 13q-39 39 -55 89t-16 114t16 114t55 89q26 26 62.5 43t83.5 17q52 0 94 -22l37 83l37 -16l-40 -89q5 -4 9 -7.5t9 -8.5q39 -39 55 -89t16 -114z
M439 250q0 49 -10.5 92t-45.5 78l-3 3l-170 -375q27 -12 63 -12t63 12t47 32q34 35 45 78t11 92zM347 447q-32 17 -74 17q-36 0 -63 -12t-47 -32q-34 -35 -45 -78t-11 -92t11 -92t45 -78l6 -6t7 -6l171 379v0z" />
    <glyph glyph-name="ugrave" unicode="&#xf9;" horiz-adv-x="583" 
d="M440 1l-6 91q-10 -24 -28 -43t-40.5 -32.5t-48.5 -21t-52 -7.5q-87 0 -131.5 49t-44.5 134v330h50v-327q0 -66 30 -101.5t99 -35.5q46 0 78 18.5t51.5 48.5t28 68.5t8.5 78.5v250h50v-500h-44zM186 666l28 44l158 -116l-17 -27z" />
    <glyph glyph-name="uacute" unicode="&#xfa;" horiz-adv-x="583" 
d="M89 0zM440 1l-6 91q-10 -24 -28 -43t-40.5 -32.5t-48.5 -21t-52 -7.5q-87 0 -131.5 49t-44.5 134v330h50v-327q0 -66 30 -101.5t99 -35.5q46 0 78 18.5t51.5 48.5t28 68.5t8.5 78.5v250h50v-500h-44zM220 567l-17 27l158 116l28 -44z" />
    <glyph glyph-name="ucircumflex" unicode="&#xfb;" horiz-adv-x="583" 
d="M89 0zM440 1l-6 91q-10 -24 -28 -43t-40.5 -32.5t-48.5 -21t-52 -7.5q-87 0 -131.5 49t-44.5 134v330h50v-327q0 -66 30 -101.5t99 -35.5q46 0 78 18.5t51.5 48.5t28 68.5t8.5 78.5v250h50v-500h-44zM390 562l-111 131l-110 -131l-31 27l125 143h33l125 -143z" />
    <glyph glyph-name="udieresis" unicode="&#xfc;" horiz-adv-x="583" 
d="M89 0zM440 1l-6 91q-10 -24 -28 -43t-40.5 -32.5t-48.5 -21t-52 -7.5q-87 0 -131.5 49t-44.5 134v330h50v-327q0 -66 30 -101.5t99 -35.5q46 0 78 18.5t51.5 48.5t28 68.5t8.5 78.5v250h50v-500h-44zM346 623v63h61v-63h-61zM162 623v63h60v-63h-60z" />
    <glyph glyph-name="yacute" unicode="&#xfd;" horiz-adv-x="479" 
d="M16 0zM235 -107q-19 -49 -51.5 -75.5t-83.5 -26.5q-15 0 -26.5 1t-19.5 3q-10 2 -17 5v42q10 -1 21 -3q18 -3 40 -3q36 0 57 21t34 53l32 82l-205 508h54l175 -444l168 444h54zM175 558l-17 27l158 116l28 -44z" />
    <glyph glyph-name="thorn" unicode="&#xfe;" horiz-adv-x="581" 
d="M527 251q0 -61 -18 -116t-56 -93q-26 -25 -60 -40t-79 -15q-51 0 -96 24.5t-68 72.5v-285h-51v922h51v-305q23 48 68 72.5t96 24.5q45 0 79 -15t60 -40q38 -38 56 -92t18 -115zM477 251q0 48 -14.5 94t-46.5 78q-19 19 -44 30t-58 11q-47 0 -78.5 -18t-50.5 -48t-27 -68
t-8 -79q0 -40 8 -79t27 -69t50.5 -48.5t78.5 -18.5q33 0 58 11t44 30q32 32 46.5 79t14.5 95z" />
    <glyph glyph-name="ydieresis" unicode="&#xff;" horiz-adv-x="479" 
d="M16 0zM235 -107q-19 -49 -51.5 -75.5t-83.5 -26.5q-15 0 -26.5 1t-19.5 3q-10 2 -17 5v42q10 -1 21 -3q18 -3 40 -3q36 0 57 21t34 53l32 82l-205 508h54l175 -444l168 444h54zM304 623v63h61v-63h-61zM120 623v63h60v-63h-60z" />
    <glyph glyph-name="dotlessi" unicode="&#x131;" horiz-adv-x="260" 
d="M104 0v500h52v-500h-52z" />
    <glyph glyph-name="Lslash" unicode="&#x141;" horiz-adv-x="563" 
d="M125 0v313l-72 -45l-22 36l94 58v347h52v-314l156 96l22 -36l-178 -110v-296h368v-49h-420z" />
    <glyph glyph-name="lslash" unicode="&#x142;" horiz-adv-x="318" 
d="M169 406v-304q0 -26 10 -43t42 -17h23.5t19.5 2v-44q-8 -2 -18.5 -4t-26.5 -2q-48 0 -74 25.5t-26 80.5v275l-66 -41l-22 36l88 55v297h50v-266l94 58l22 -36z" />
    <glyph glyph-name="OE" unicode="&#x152;" horiz-adv-x="1050" 
d="M542 0v100q-7 -13 -14.5 -22.5t-16.5 -18.5q-33 -32 -79.5 -52t-104.5 -20t-104.5 20t-79.5 52q-30 29 -47 64.5t-25.5 74t-10.5 79t-2 78.5t2 78t10.5 78.5t25.5 74t47 64.5q33 32 79.5 52t104.5 20t104.5 -20t79.5 -52q9 -9 17.5 -19.5t13.5 -21.5v100h454v-50h-401
v-260h353v-50h-353v-299h401v-50h-454zM542 355q0 32 -1 67t-7.5 70t-20.5 67t-40 57q-28 27 -66 41t-80 14t-80 -14t-66 -41q-26 -25 -40 -57t-20.5 -67t-7.5 -70t-1 -67q0 -31 1 -66.5t7.5 -70.5t20.5 -67.5t40 -57.5q28 -27 66 -41t80 -14t80 14t66 41q26 25 40 57.5
t20.5 67.5t7.5 70.5t1 66.5z" />
    <glyph glyph-name="oe" unicode="&#x153;" horiz-adv-x="912" 
d="M862 271q0 -9 -0.5 -16.5t-0.5 -16.5h-375q0 -3 -0.5 -6.5t-0.5 -6.5q2 -40 14.5 -75.5t35.5 -61.5q21 -25 50 -39t70 -14q66 0 106 41q14 14 24 32.5t15 41.5h52q-5 -32 -20.5 -60t-36.5 -48q-55 -55 -140 -55q-54 0 -91.5 20t-64.5 51q-20 23 -36 55q-15 -37 -45 -67
q-26 -26 -63 -42.5t-84 -16.5t-84 16.5t-63 42.5q-39 39 -53.5 89.5t-14.5 114.5t14.5 114.5t53.5 89.5q26 26 63 42.5t84 16.5t84 -16.5t63 -42.5q29 -29 44 -64q5 9 10 18.5t11 17.5q64 87 168 87q54 0 96 -21.5t73 -68.5q24 -36 33 -74t9 -78zM811 284q-1 77 -42 128
q-20 24 -48 39t-70 15q-40 0 -70 -14.5t-50 -39.5q-9 -11 -17 -26t-14.5 -32.5t-10 -35.5t-3.5 -34h325v0zM435 250q0 49 -9.5 92.5t-43.5 78.5q-20 20 -47.5 31.5t-63.5 11.5t-63.5 -11.5t-47.5 -31.5q-34 -35 -43.5 -78.5t-9.5 -92.5t9.5 -93t43.5 -79q40 -42 111 -42
t111 42q34 35 43.5 79t9.5 93z" />
    <glyph glyph-name="Scaron" unicode="&#x160;" horiz-adv-x="622" 
d="M569 192q0 -47 -15.5 -79t-40.5 -57q-36 -35 -87.5 -52t-113.5 -17q-61 0 -112 19t-86 57q-26 28 -43 64t-21 77h54q4 -32 18 -60t34 -49q29 -29 70 -43.5t86 -14.5q46 0 89 12.5t72 40.5q19 18 30.5 43t11.5 59q0 26 -9.5 49t-27.5 41.5t-43.5 31t-57.5 16.5l-132 17
q-37 5 -69 18t-55.5 35.5t-36.5 53.5t-13 72q0 45 17.5 77t44.5 57q33 30 79 46t96 16q57 0 109.5 -21.5t82.5 -56.5q23 -26 37 -55.5t17 -67.5h-53q-4 27 -13 48.5t-26 41.5q-23 29 -64 45t-90 16q-38 0 -73.5 -10t-61.5 -33q-20 -18 -34 -43t-14 -60q0 -31 10.5 -53.5
t27.5 -37t40 -22.5t47 -11l134 -17q41 -5 75 -22t58.5 -42.5t38 -58t13.5 -70.5zM326 755h-33l-122 140l30 26l109 -128l108 128l30 -26z" />
    <glyph glyph-name="scaron" unicode="&#x161;" horiz-adv-x="512" 
d="M456 139q0 -53 -34 -92q-27 -30 -69.5 -45t-92.5 -15q-51 0 -93 16t-71 48q-21 24 -30.5 47t-11.5 54h51q4 -44 37 -77q22 -21 52 -30.5t66 -9.5q39 0 69 9t49 28q14 14 20.5 28t6.5 36q0 34 -23.5 59.5t-68.5 31.5l-97 13q-31 4 -61.5 15t-51.5 35q-28 33 -28 79
q0 30 11.5 54.5t31.5 42.5q27 25 62.5 36t74.5 11q45 0 85 -14.5t66 -44.5q17 -20 27 -44t11 -48h-50q-2 12 -7.5 29t-17.5 31q-17 20 -46 32t-68 12q-58 0 -90 -23q-39 -28 -39 -69q0 -32 20 -54t77 -30l95 -13q35 -5 61 -18.5t43 -32.5t25.5 -41.5t8.5 -45.5zM270 555h-30
l-112 129l28 24l100 -117l99 117l27 -24z" />
    <glyph glyph-name="Ydieresis" unicode="&#x178;" horiz-adv-x="545" 
d="M2 0zM298 281v-281h-51v281l-245 428h56l216 -377l216 377h53zM334 799v63h61v-63h-61zM150 799v63h60v-63h-60z" />
    <glyph glyph-name="florin" unicode="&#x192;" horiz-adv-x="528" 
d="M472 663q-12 3 -25.5 5t-31.5 2q-38 0 -59 -22t-30 -67l-32 -155h151v-45h-160l-34 -169h-1l-42 -208q-14 -69 -49 -97.5t-86 -28.5q-14 0 -28.5 1t-28.5 3v46q8 -1 26 -2t30 -1q38 0 59 21.5t30 66.5l75 368h-112v45h122l33 163q14 69 49.5 97.5t86.5 28.5
q14 0 28.5 -1.5t28.5 -3.5v-47v0z" />
    <glyph glyph-name="circumflex" unicode="&#x2c6;" horiz-adv-x="355" 
d="M288 562l-111 131l-110 -131l-31 27l125 143h33l125 -143z" />
    <glyph glyph-name="caron" unicode="&#x2c7;" horiz-adv-x="353" 
d="M193 757h-33l-125 143l31 27l111 -131l110 131l31 -27z" />
    <glyph glyph-name="breve" unicode="&#x2d8;" horiz-adv-x="363" 
d="M328 709q-5 -65 -44 -104t-102 -39t-102 39t-44 104h43q5 -48 31.5 -75t71.5 -27t71.5 27t31.5 75h43v0z" />
    <glyph glyph-name="dotaccent" unicode="&#x2d9;" horiz-adv-x="275" 
d="M103 639v70h69v-70h-69z" />
    <glyph glyph-name="ring" unicode="&#x2da;" horiz-adv-x="220" 
d="M217 670q0 -47 -31 -76t-76 -29t-76 29t-31 76q0 45 28 75t79 30t79 -30t28 -75zM178 670q0 29 -18 49.5t-50 20.5t-50.5 -20.5t-18.5 -49.5t18.5 -49.5t50.5 -20.5t50 20.5t18 49.5z" />
    <glyph glyph-name="ogonek" unicode="&#x2db;" horiz-adv-x="174" 
d="M93 -218l-65 160h46l72 -135z" />
    <glyph glyph-name="tilde" unicode="&#x2dc;" horiz-adv-x="360" 
d="M322 650q-18 -16 -37 -28t-45 -12q-18 0 -34 6.5t-31 14t-30.5 14t-31.5 6.5t-28.5 -6.5t-23.5 -16.5l-23 24q18 17 37 29t45 12q18 0 34 -6.5t31 -14t29.5 -14t29.5 -6.5q17 0 29.5 6t24.5 17l24 -25v0z" />
    <glyph glyph-name="hungarumlaut" unicode="&#x2dd;" horiz-adv-x="459" 
d="M270 562l-18 27l159 122l30 -45zM57 562l-18 27l159 122l30 -45z" />
    <glyph glyph-name="Omega" unicode="&#x3a9;" horiz-adv-x="880" 
d="M807 354q0 -76 -28.5 -143.5t-78.5 -118t-116.5 -79.5t-143.5 -29q-76 0 -143 29t-117 79.5t-78.5 118t-28.5 143.5q0 77 28.5 144t78.5 117.5t117 79.5t143 29q77 0 143.5 -29t116.5 -79.5t78.5 -117.5t28.5 -144zM759 354q0 68 -24.5 127t-67.5 103.5t-101.5 70
t-125.5 25.5t-125.5 -25.5t-101.5 -70t-67.5 -103.5t-24.5 -127q0 -67 24.5 -126.5t67.5 -103.5t101.5 -69.5t125.5 -25.5t125.5 25.5t101.5 69.5t67.5 103.5t24.5 126.5zM598 412q0 -24 -8 -45.5t-24.5 -38t-40.5 -26.5t-56 -10h-87v-143h-47v384h135q32 0 56 -10t40 -26.5
t24 -38.5t8 -46zM552 413q0 27 -19 50t-63 23h-88v-147h87q44 0 63.5 23.5t19.5 50.5z" />
    <glyph glyph-name="pi" unicode="&#x3c0;" horiz-adv-x="641" 
d="M563 1q-8 -2 -18 -4t-26 -2q-47 0 -74.5 25t-27.5 82v353h-214v-455h-48v455h-82v45h475v-45h-80v-351q0 -26 10 -44t42 -18h23.5t19.5 2v-43v0z" />
    <glyph glyph-name="endash" unicode="&#x2013;" horiz-adv-x="614" 
d="M75 279v46h464v-46h-464z" />
    <glyph glyph-name="emdash" unicode="&#x2014;" horiz-adv-x="1097" 
d="M75 279v46h947v-46h-947z" />
    <glyph glyph-name="quoteleft" unicode="&#x2018;" horiz-adv-x="233" 
d="M163 691q-32 -17 -44 -37.5t-12 -57.5h55v-90h-92v91q0 43 18 73t58 49l17 -28v0z" />
    <glyph glyph-name="quoteright" unicode="&#x2019;" horiz-adv-x="213" 
d="M158 618q0 -43 -18 -73t-58 -49l-17 28q32 17 44 37.5t12 57.5h-55v90h92v-91v0z" />
    <glyph glyph-name="quotesinglbase" unicode="&#x201a;" horiz-adv-x="243" 
d="M168 -1q0 -43 -18 -73t-58 -49l-17 28q32 17 44 37.5t12 57.5h-55v90h92v-91v0z" />
    <glyph glyph-name="quotedblleft" unicode="&#x201c;" horiz-adv-x="386" 
d="M326 699q-32 -17 -44 -37.5t-12 -57.5h55v-90h-92v91q0 43 18 73t58 49l17 -28v0zM163 699q-32 -17 -44 -37.5t-12 -57.5h55v-90h-92v91q0 43 18 73t58 49l17 -28v0z" />
    <glyph glyph-name="quotedblright" unicode="&#x201d;" horiz-adv-x="376" 
d="M321 618q0 -43 -18 -73t-58 -49l-17 28q32 17 44 37.5t12 57.5h-55v90h92v-91v0zM158 618q0 -43 -18 -73t-58 -49l-17 28q32 17 44 37.5t12 57.5h-55v90h92v-91v0z" />
    <glyph glyph-name="quotedblbase" unicode="&#x201e;" horiz-adv-x="401" 
d="M326 -1q0 -43 -18 -73t-58 -49l-17 28q32 17 44 37.5t12 57.5h-55v90h92v-91v0zM163 -1q0 -43 -18 -73t-58 -49l-17 28q32 17 44 37.5t12 57.5h-55v90h92v-91v0z" />
    <glyph glyph-name="dagger" unicode="&#x2020;" horiz-adv-x="567" 
d="M308 456v-581h-48v581h-197v44h197v209h48v-209h196v-44h-196z" />
    <glyph glyph-name="daggerdbl" unicode="&#x2021;" horiz-adv-x="567" 
d="M308 84v-209h-48v209h-196v44h196v328h-197v44h197v209h48v-209h196v-44h-196v-328h197v-44h-197z" />
    <glyph glyph-name="bullet" unicode="&#x2022;" horiz-adv-x="426" 
d="M328 292q0 -24 -9 -45t-24.5 -36.5t-36.5 -24.5t-45 -9t-45 9t-36.5 24.5t-24.5 36.5t-9 45t9 45t24.5 36.5t36.5 24.5t45 9t45 -9t36.5 -24.5t24.5 -36.5t9 -45z" />
    <glyph glyph-name="ellipsis" unicode="&#x2026;" horiz-adv-x="858" 
d="M672 0v89h86v-89h-86zM386 0v89h86v-89h-86zM100 0v89h86v-89h-86z" />
    <glyph glyph-name="perthousand" unicode="&#x2030;" horiz-adv-x="1139" 
d="M1081 168q0 -35 -7.5 -65.5t-24.5 -56.5q-18 -26 -47 -42t-68 -16t-68.5 16t-47.5 42q-17 26 -24.5 56.5t-7.5 65.5t7.5 65.5t24.5 56.5q18 26 47.5 42t68.5 16t68 -16t47 -42q17 -26 24.5 -56.5t7.5 -65.5zM363 541q0 -35 -7.5 -65.5t-24.5 -56.5q-18 -26 -47 -42.5
t-68 -16.5t-68.5 16.5t-47.5 42.5q-17 26 -24.5 56.5t-7.5 65.5t7.5 65t24.5 56q18 26 47 42.5t68 16.5t68.5 -16.5t47.5 -42.5q17 -26 24.5 -56t7.5 -65zM161 -12l-35 27l517 704l36 -25zM732 168q0 -35 -7 -65.5t-24 -56.5q-18 -26 -47.5 -42t-68.5 -16t-68.5 16t-47.5 42
q-17 26 -24.5 56.5t-7.5 65.5t7.5 65.5t24.5 56.5q18 26 47.5 42t68.5 16t68.5 -16t47.5 -42q17 -26 24 -56.5t7 -65.5zM1036 168q0 28 -5.5 53t-18 43.5t-32 29t-46.5 10.5t-46.5 -10.5t-32 -29t-18 -43.5t-5.5 -53t5.5 -53t18 -43.5t32 -29t46.5 -10.5t46.5 10.5t32 29
t18 43.5t5.5 53zM318 541q0 28 -6 53t-18.5 43.5t-32 29t-46.5 10.5t-46.5 -10.5t-32 -29t-18 -43.5t-5.5 -53t6 -53t18.5 -43.5t32 -29t46.5 -10.5t46.5 10.5t32 29t18 43.5t5.5 53zM687 168q0 28 -5.5 53t-18 43.5t-32 29t-46.5 10.5t-46.5 -10.5t-32 -29t-18 -43.5
t-5.5 -53t5.5 -53t18 -43.5t32 -29t46.5 -10.5t46.5 10.5t32 29t18 43.5t5.5 53z" />
    <glyph glyph-name="guilsinglleft" unicode="&#x2039;" horiz-adv-x="315" 
d="M217 72l-162 219l162 219l33 -25l-136 -194l136 -193z" />
    <glyph glyph-name="guilsinglright" unicode="&#x203a;" horiz-adv-x="315" 
d="M99 72l-34 26l137 193l-137 194l34 25l161 -219z" />
    <glyph glyph-name="fraction" unicode="&#x2044;" horiz-adv-x="589" 
d="M56 -12l-35 27l517 704l36 -25z" />
    <glyph glyph-name="Euro" unicode="&#x20ac;" horiz-adv-x="593" 
d="M568 35q-38 -26 -80 -37t-88 -11q-57 0 -105 18.5t-88 59.5q-38 39 -57 88.5t-27 103.5h-84v42h80q-1 12 -1 24v49q0 13 1 25h-80v42h84q6 53 25 101.5t59 89.5q78 79 193 79q46 0 88 -11t80 -37l-19 -42q-34 23 -71.5 32.5t-77.5 9.5q-47 0 -88 -16.5t-73 -51.5
q-30 -33 -43.5 -72.5t-18.5 -81.5h289l-19 -42h-273q-1 -13 -1 -25v-49q0 -12 1 -24h235l-19 -42h-213q5 -42 18.5 -81.5t43.5 -72.5q32 -35 73 -51.5t88 -16.5q40 0 77.5 9.5t71.5 32.5l19 -42v0z" />
    <glyph glyph-name="trademark" unicode="&#x2122;" horiz-adv-x="826" 
d="M701 307v353l-123 -344h-29l-123 344v-353h-41v403h63l116 -326l115 326h64v-403h-42zM184 669v-362h-42v362h-115v41h272v-41h-115z" />
    <glyph glyph-name="partialdiff" unicode="&#x2202;" 
d="M122 0v48h163v585l-173 -127v56l178 133h45v-647h163v-48h-376z" />
    <glyph glyph-name="Delta" unicode="&#x2206;" horiz-adv-x="705" 
d="M567 242v390l-488 -488l-33 33l490 489h-381v43h454v-467h-42z" />
    <glyph glyph-name="product" unicode="&#x220f;" horiz-adv-x="898" 
d="M80 856v19h738v-19h-738zM80 666v19h738v-19h-738zM80 477v19h738v-19h-738zM80 287v19h738v-19h-738zM80 98v19h738v-19h-738zM80 -92v19h738v-19h-738zM80 -281v19h738v-19h-738z" />
    <glyph glyph-name="summation" unicode="&#x2211;" horiz-adv-x="926" 
d="M80 -72v220h40v-178h687v178h39v-220h-766z" />
    <glyph glyph-name="minus" unicode="&#x2212;" horiz-adv-x="630" 
d="M68 279v46h464v-46h-464z" />
    <glyph glyph-name="radical" unicode="&#x221a;" horiz-adv-x="680" 
d="M574 788l-265 -796h-51l-173 497h54l145 -426l253 769h153v-44h-116z" />
    <glyph glyph-name="infinity" unicode="&#x221e;" horiz-adv-x="720" 
d="M319 -1q-45 0 -85 12t-70 36t-47.5 60.5t-17.5 85.5q0 58 32 104t88 70q-51 19 -79 62t-28 94q0 48 17.5 83.5t46.5 58.5t66.5 34.5t76.5 11.5q19 0 42.5 -2.5t42.5 -7.5v-45q-18 4 -39.5 6t-38.5 2q-31 0 -60.5 -8t-52 -25.5t-36.5 -43.5t-14 -62q0 -35 12 -61t33 -43
t49.5 -25t60.5 -8h155v119h50v-119h113v-44h-113v-299h113v-46h-317zM473 344h-155q-34 0 -65 -10.5t-53.5 -30t-36 -47.5t-13.5 -64q0 -37 13.5 -64.5t37 -46t55 -27.5t67.5 -9h150v299z" />
    <glyph glyph-name="integral" unicode="&#x222b;" horiz-adv-x="705" 
d="M626 144l-488 488v-390h-42v467h454v-43h-381l490 -489z" />
    <glyph glyph-name="approxequal" unicode="&#x2248;" horiz-adv-x="641" 
d="M558 387q-29 -30 -59 -48t-74 -18q-28 0 -54 10t-51.5 22.5t-51 22.5t-53.5 10q-33 0 -53 -12.5t-44 -35.5l-35 35q29 30 58.5 48t73.5 18q29 0 56.5 -10t53.5 -21.5t51 -21.5t49 -10q34 0 53.5 11.5t44.5 34.5l35 -35v0zM558 172q-29 -30 -59 -47.5t-74 -17.5
q-28 0 -54 10t-51.5 22t-51 22t-53.5 10q-33 0 -53 -12.5t-44 -35.5l-35 35q29 30 58.5 48t73.5 18q29 0 56.5 -9.5t53.5 -21.5t51 -21.5t49 -9.5q34 0 53.5 11t44.5 34l35 -35v0z" />
    <glyph glyph-name="notequal" unicode="&#x2260;" horiz-adv-x="693" 
d="M258 136l-73 -109l-33 22l58 87h-97v46h128l128 191h-256v46h287l72 107l33 -22l-57 -85h132v-46h-163l-128 -191h291v-46h-322z" />
    <glyph glyph-name="lessequal" unicode="&#x2264;" horiz-adv-x="842" 
d="M120 282l277 -275l-30 -30l-328 327l327 327l30 -30l-276 -274h676v-45h-676z" />
    <glyph glyph-name="greaterequal" unicode="&#x2265;" horiz-adv-x="842" 
d="M475 -23l-30 30l277 275h-676v45h676l-276 274l30 30l327 -327z" />
    <glyph glyph-name="lozenge" unicode="&#x25ca;" 
d="M507 348q0 -41 -2.5 -84t-11.5 -83.5t-25 -76t-43 -61.5q-24 -23 -58.5 -39.5t-82.5 -16.5t-82.5 16.5t-58.5 39.5q-27 26 -43 61.5t-25 76t-11.5 83.5t-2.5 84t2.5 84t11.5 83.5t25 76t43 61.5q24 23 58.5 39.5t82.5 16.5t82.5 -16.5t58.5 -39.5q27 -26 43 -61.5t25 -76
t11.5 -83.5t2.5 -84zM429 562q-13 35 -38 59q-19 18 -44.5 29t-62.5 11t-62.5 -11t-44.5 -29q-24 -23 -37 -56t-19 -70t-7.5 -75t-1.5 -72q0 -37 2 -79.5t10 -82.5l305 376v0zM456 348q0 38 -2 81t-11 84l-305 -376q14 -37 39 -62q19 -18 44.5 -29t62.5 -11t62.5 11t44.5 29
q24 23 37 56t19 70t7.5 75t1.5 72z" />
    <glyph glyph-name="apple" unicode="&#xf8ff;" horiz-adv-x="588" 
d="M539 364q0 -41 -26 -67.5t-67 -26.5h-72q17 -23 17 -54q0 -41 -26 -67t-67 -26h-249v248q0 41 26 67.5t67 26.5q30 0 55 -17v71q0 41 26 67.5t67 26.5t67 -26.5t26 -67.5v-62h63q41 0 67 -26.5t26 -66.5zM522 364q0 34 -21 55t-55 21h-79v79q0 34 -21.5 55.5t-55.5 21.5
t-55 -21.5t-21 -55.5v-232h232q34 0 55 21.5t21 55.5z" />
    <glyph glyph-name="fi" unicode="&#xfb01;" horiz-adv-x="620" 
d="M32 0zM349 677q-15 2 -32.5 4t-39.5 2q-95 0 -95 -97v-86h157v-46h-157v-454h-50v454h-100v46h100v88q0 29 9 54t26.5 44.5t44 30.5t61.5 11q22 0 40 -1.5t36 -4.5v-45v0zM454 639v70h70v-70h-70zM463 0v500h53v-500h-53z" />
    <glyph glyph-name="fl" unicode="&#xfb02;" horiz-adv-x="635" 
d="M32 0zM349 677q-15 2 -32.5 4t-39.5 2q-95 0 -95 -97v-86h157v-46h-157v-454h-50v454h-100v46h100v88q0 29 9 54t26.5 44.5t44 30.5t61.5 11q22 0 40 -1.5t36 -4.5v-45v0zM597 0q-8 -2 -18.5 -4t-26.5 -2q-48 0 -74 25.5t-26 80.5v622h50v-620q0 -26 10 -43t42 -17h23.5
t19.5 2v-44v0z" />
    <glyph glyph-name=".ttfautohint" horiz-adv-x="635" 
d="M0 0z" />
    </font>
</defs>
</svg>
