<?xml version="1.0" standalone="no"?>
<!DOCTYPE svg PUBLIC "-//W3C//DTD SVG 1.1//EN" "http://www.w3.org/Graphics/SVG/1.1/DTD/svg11.dtd" >
<svg xmlns="http://www.w3.org/2000/svg">
<metadata>Generated by IcoMoon</metadata>
<defs>
<font id="icomoon" horiz-adv-x="1024">
<font-face units-per-em="1024" ascent="870.850439882698" descent="-153.14956011730206" />
<missing-glyph horiz-adv-x="1024" />
<glyph unicode="&#x20;" horiz-adv-x="0" d="" />
<glyph unicode="&#xe800;" glyph-name="plus" horiz-adv-x="597" d="M564.854 383.812q30.81 0 30.81-51.35t-30.81-51.35h-215.671v-215.671q0-30.81-51.35-30.81t-51.35 30.81v215.671h-215.671q-30.81 0-30.81 51.35t30.81 51.35h215.671v215.671q0 30.81 51.35 30.81t51.35-30.81v-215.671h215.671z" />
<glyph unicode="&#xe900;" glyph-name="talk" d="M513.502 813.871c283.6 0 513.502-186.796 513.502-417.221 0-230.427-229.903-417.221-513.502-417.221-27.237 0-53.969 1.74-80.058 5.059-110.302-110.302-241.958-130.081-369.257-132.986v26.994c68.737 33.677 128.375 95.019 128.375 165.119 0 9.784-0.761 19.387-2.17 28.78-116.135 76.489-190.394 193.32-190.394 324.253 0 230.425 229.903 417.221 513.502 417.221z" />
<glyph unicode="&#xe901;" glyph-name="pinterest-circle" horiz-adv-x="881" d="M880.291 346.216c0-242.997-197.148-440.145-440.145-440.145-43.556 0-84.82 6.304-124.937 18.34 16.619 26.364 35.534 60.177 44.703 93.99 0 0 5.158 19.486 30.947 120.925 14.902-29.229 59.603-55.019 107.171-55.019 141.557 0 237.839 128.949 237.839 302.027 0 130.095-110.61 252.167-279.103 252.167-208.611 0-314.062-150.153-314.062-275.091 0-75.651 28.655-143.277 89.978-168.493 9.743-4.012 18.911 0 21.777 11.462 2.292 7.45 6.878 26.935 9.17 34.959 2.866 11.462 1.72 14.902-6.304 24.643-17.765 21.206-29.229 48.141-29.229 86.539 0 111.182 83.1 210.904 216.634 210.904 118.059 0 183.394-72.211 183.394-169.066 0-126.657-56.165-233.827-139.838-233.827-45.849 0-80.234 37.825-69.347 84.82 13.182 55.591 38.971 115.768 38.971 155.885 0 36.105-19.486 66.481-59.603 66.481-46.995 0-84.82-48.714-84.82-114.047 0 0 0-41.837 14.328-69.918-48.141-204.026-56.736-239.558-56.736-239.558-8.024-33.239-8.595-70.493-7.45-101.44-155.312 68.2-263.628 222.939-263.628 403.467 0 242.997 197.148 440.145 440.145 440.145s440.145-197.148 440.145-440.145z" />
<glyph unicode="&#xe902;" glyph-name="whatsapp" horiz-adv-x="881" d="M564.509 301.514c9.743 0 103.16-48.714 107.171-55.591 1.146-2.866 1.146-6.304 1.146-8.595 0-14.328-4.583-30.376-9.743-43.556-13.182-32.093-66.481-52.724-99.148-52.724-27.51 0-84.246 24.070-108.889 35.534-81.954 37.251-132.961 100.866-182.248 173.651-21.777 32.093-41.263 71.639-40.691 111.182v4.583c1.146 37.825 14.902 64.76 42.409 90.55 8.595 8.024 17.765 12.607 29.801 12.607 6.878 0 13.753-1.72 21.206-1.72 15.474 0 18.34-4.583 24.070-19.486 4.012-9.743 33.239-87.686 33.239-93.416 0-21.777-39.546-46.421-39.546-59.603 0-2.866 1.146-5.732 2.866-8.595 12.607-26.935 36.679-57.883 58.457-78.517 26.364-25.218 54.445-41.837 86.539-57.883 4.012-2.292 8.024-4.012 12.607-4.012 17.194 0 45.849 55.591 60.748 55.591zM448.169-2.233c198.294 0 359.91 161.617 359.91 359.91s-161.617 359.91-359.91 359.91-359.91-161.617-359.91-359.91c0-75.651 24.070-149.581 68.772-210.904l-45.275-133.533 138.691 44.129c58.457-38.397 127.804-59.603 197.722-59.603zM448.169 789.8c238.412 0 432.122-193.71 432.122-432.122s-193.71-432.122-432.122-432.122c-72.784 0-144.995 18.34-209.183 53.873l-238.985-76.796 77.942 232.108c-40.691 67.052-61.894 144.423-61.894 222.939 0 238.412 193.71 432.122 432.122 432.122z" />
<glyph unicode="&#xe903;" glyph-name="print" horiz-adv-x="954" d="M220.073-20.571h513.502v146.715h-513.502v-146.715zM220.073 346.216h513.502v220.073h-91.697c-30.376 0-55.019 24.643-55.019 55.019v91.697h-366.787v-366.787zM880.291 309.538c0 20.060-16.619 36.679-36.679 36.679s-36.679-16.619-36.679-36.679 16.619-36.679 36.679-36.679 36.679 16.619 36.679 36.679zM953.647 309.538v-238.412c0-9.743-8.595-18.34-18.34-18.34h-128.375v-91.697c0-30.376-24.643-55.019-55.019-55.019h-550.181c-30.376 0-55.019 24.643-55.019 55.019v91.697h-128.375c-9.743 0-18.34 8.595-18.34 18.34v238.412c0 60.177 49.861 110.035 110.035 110.035h36.679v311.769c0 30.376 24.643 55.019 55.019 55.019h385.127c30.376 0 72.211-17.194 93.99-38.971l87.112-87.112c21.777-21.777 38.971-63.615 38.971-93.99v-146.715h36.679c60.177 0 110.035-49.861 110.035-110.035z" />
<glyph unicode="&#xe904;" glyph-name="envelope" d="M1027.006 452.814v-455.046c0-50.433-41.263-91.697-91.697-91.697h-843.612c-50.433 0-91.697 41.263-91.697 91.697v455.046c17.194-18.911 36.679-35.534 57.883-49.861 95.136-64.76 191.418-129.521 284.834-197.722 48.141-35.534 107.744-79.088 170.212-79.088h1.146c62.469 0 122.071 43.556 170.212 79.088 93.416 67.627 189.698 132.961 285.406 197.722 20.631 14.328 40.117 30.947 57.311 49.861zM1027.006 621.307c0-64.189-47.567-122.071-98.002-157.030-89.404-61.894-179.382-123.792-268.214-186.26-37.251-25.789-100.294-78.517-146.715-78.517h-1.146c-46.421 0-109.464 52.724-146.715 78.517-88.832 62.469-178.809 124.363-267.64 186.26-40.691 27.51-98.574 92.27-98.574 144.423 0 56.165 30.376 104.306 91.697 104.306h843.612c49.861 0 91.697-41.263 91.697-91.697z" />
<glyph unicode="&#xe905;" glyph-name="search" horiz-adv-x="959" d="M376.569 229.623c132.422 0 239.772 107.35 239.772 239.772s-107.35 239.772-239.772 239.772c-132.422 0-239.772-107.35-239.772-239.772s107.35-239.772 239.772-239.772zM376.569 92.827c-207.974 0-376.569 168.595-376.569 376.569s168.595 376.569 376.569 376.569c207.974 0 376.569-168.595 376.569-376.569s-168.595-376.569-376.569-376.569zM656.407 80.524l302.131-302.131 96.729 96.729-302.131 302.131z" />
<glyph unicode="&#xe906;" glyph-name="user" d="M32.81-127.026c0 6.074 0.317 13.835 0.953 23.285s4.049 24.886 10.242 46.314c6.192 21.428 14.845 38.047 25.96 49.859 10.799 11.473 31.756 24.042 62.877 37.711s66.451 28.091 105.987 43.277c39.538 15.186 68.673 27.839 87.409 37.963 23.5 12.149 41.602 30.624 54.304 55.426s19.055 50.364 19.055 76.686c0 18.56-10.004 39.819-30.009 63.777-11.749 14.846-21.911 35.094-30.487 60.74-28.265 12.485-42.394 37.626-42.394 75.421 0 28.007 4.603 48.255 13.813 60.74-2.539 18.896-5.398 46.738-8.573 83.518-0.636 5.398-1.349 12.569-2.143 21.512s0 24.213 2.381 45.81c2.381 21.597 7.383 39.819 15.006 54.666 12.068 22.609 27.391 38.215 45.968 46.822s33.742 10.208 45.49 4.81c1.111 3.881 2.539 8.351 4.765 13.921s6.829 12.993 13.813 22.272c6.987 9.28 15.085 16.451 24.295 21.512 5.081 2.701 13.338 4.81 24.77 6.327s25.327 1.688 41.681 0.505c16.355-1.181 33.345-3.797 50.97-7.847s35.249-11.389 52.876-22.018c17.624-10.629 33.425-23.705 47.396-39.228s25.485-36.022 34.536-61.5c9.051-25.478 13.733-54.413 14.053-86.81 0.317-7.087 0.317-14.005 0-20.752-2.539-31.045-5.556-58.884-9.051-83.518 9.209-12.485 13.813-32.733 13.813-60.74 0-37.795-14.132-62.933-42.394-75.421-8.573-25.646-18.736-45.894-30.487-60.74-20.007-23.958-30.009-45.218-30.009-63.777 0-26.322 6.351-51.884 19.055-76.686s30.804-43.277 54.304-55.426c18.736-10.124 47.874-22.777 87.409-37.963s74.945-29.611 106.227-43.277c31.281-13.666 52.319-26.238 63.117-37.711 11.115-11.812 19.688-27.671 25.723-47.579s9.368-36.951 10.004-51.124l0.953-20.752h-953.647z" />
<glyph unicode="&#xe907;" glyph-name="instagram" horiz-adv-x="881" d="M586.861 346.216c0 80.808-65.906 146.715-146.715 146.715s-146.715-65.906-146.715-146.715 65.906-146.715 146.715-146.715 146.715 65.906 146.715 146.715zM665.949 346.216c0-124.937-100.866-225.804-225.804-225.804s-225.804 100.866-225.804 225.804 100.866 225.804 225.804 225.804 225.804-100.866 225.804-225.804zM727.844 581.19c0-29.229-23.498-52.724-52.724-52.724s-52.724 23.498-52.724 52.724 23.498 52.724 52.724 52.724 52.724-23.498 52.724-52.724zM440.145 707.273c-64.189 0-201.734 5.158-259.617-17.765-20.060-8.024-34.959-17.765-50.433-33.239s-25.218-30.376-33.239-50.433c-22.923-57.883-17.765-195.429-17.765-259.617s-5.158-201.734 17.765-259.617c8.024-20.060 17.765-34.959 33.239-50.433s30.376-25.218 50.433-33.239c57.883-22.923 195.429-17.765 259.617-17.765s201.734-5.158 259.617 17.765c20.060 8.024 34.959 17.765 50.433 33.239s25.218 30.376 33.239 50.433c22.923 57.883 17.765 195.429 17.765 259.617s5.158 201.734-17.765 259.617c-8.024 20.060-17.765 34.959-33.239 50.433s-30.376 25.218-50.433 33.239c-57.883 22.923-195.429 17.765-259.617 17.765zM880.291 346.216c0-60.748 0.574-120.925-2.866-181.674-3.438-70.493-19.486-132.961-71.064-184.54s-114.047-67.627-184.54-71.064c-60.748-3.438-120.925-2.866-181.674-2.866s-120.925-0.574-181.674 2.866c-70.493 3.438-132.961 19.486-184.54 71.064s-67.627 114.047-71.064 184.54c-3.438 60.748-2.866 120.925-2.866 181.674s-0.574 120.925 2.866 181.674c3.438 70.493 19.486 132.961 71.064 184.54s114.047 67.627 184.54 71.064c60.748 3.438 120.925 2.866 181.674 2.866s120.925 0.574 181.674-2.866c70.493-3.438 132.961-19.486 184.54-71.064s67.627-114.047 71.064-184.54c3.438-60.748 2.866-120.925 2.866-181.674z" />
<glyph unicode="&#xe908;" glyph-name="crosshairs" horiz-adv-x="881" d="M686.008 272.859h-62.469c-20.060 0-36.679 16.619-36.679 36.679v73.358c0 20.060 16.619 36.679 36.679 36.679h62.469c-24.643 82.528-89.978 147.861-172.504 172.504v-62.469c0-20.060-16.619-36.679-36.679-36.679h-73.358c-20.060 0-36.679 16.619-36.679 36.679v62.469c-82.528-24.643-147.861-89.978-172.504-172.504h62.469c20.060 0 36.679-16.619 36.679-36.679v-73.358c0-20.060-16.619-36.679-36.679-36.679h-62.469c24.643-82.528 89.978-147.861 172.504-172.504v62.469c0 20.060 16.619 36.679 36.679 36.679h73.358c20.060 0 36.679-16.619 36.679-36.679v-62.469c82.528 24.643 147.861 89.978 172.504 172.504zM880.291 382.894v-73.358c0-20.060-16.619-36.679-36.679-36.679h-81.954c-28.081-123.217-124.937-220.073-248.155-248.155v-81.954c0-20.060-16.619-36.679-36.679-36.679h-73.358c-20.060 0-36.679 16.619-36.679 36.679v81.954c-123.217 28.081-220.073 124.937-248.155 248.155h-81.954c-20.060 0-36.679 16.619-36.679 36.679v73.358c0 20.060 16.619 36.679 36.679 36.679h81.954c28.081 123.217 124.937 220.073 248.155 248.155v81.954c0 20.060 16.619 36.679 36.679 36.679h73.358c20.060 0 36.679-16.619 36.679-36.679v-81.954c123.217-28.081 220.073-124.937 248.155-248.155h81.954c20.060 0 36.679-16.619 36.679-36.679z" />
<glyph unicode="&#xe909;" glyph-name="chevron-right" d="M470.523 620.485c21.465-20.95 231.179-241.089 231.179-241.089 11.451-11.246 17.203-25.88 17.203-40.516s-5.752-29.271-17.203-40.411c0 0-209.715-220.242-231.179-241.089-21.465-20.95-60.081-22.389-82.931 0-22.901 22.287-24.699 53.455 0 80.826l192.41 200.678-192.41 200.678c-24.699 27.371-22.901 58.59 0 80.928 22.85 22.389 61.466 21.002 82.931 0z" />
<glyph unicode="&#xe90a;" glyph-name="chevron-left" d="M639.413 620.485c22.901-22.389 24.699-53.558 0-80.928l-192.41-200.678 192.41-200.678c24.699-27.371 22.901-58.59 0-80.826-22.85-22.389-61.466-20.95-82.931 0-21.465 20.847-231.179 241.089-231.179 241.089-11.451 11.143-17.203 25.777-17.203 40.411s5.752 29.271 17.203 40.516c0 0 209.715 220.139 231.179 241.089 21.465 21.002 60.081 22.389 82.931 0z" />
<glyph unicode="&#xe90b;" glyph-name="chevron-down" d="M231.897 464.791c22.389 22.901 53.558 24.699 80.928 0l200.678-192.41 200.678 192.41c27.371 24.699 58.59 22.901 80.826 0 22.389-22.85 20.95-61.466 0-82.931-20.847-21.465-241.089-231.179-241.089-231.179-11.143-11.451-25.777-17.203-40.411-17.203s-29.271 5.752-40.516 17.203c0 0-220.139 209.715-241.089 231.179-21.002 21.465-22.389 60.081 0 82.931z" />
<glyph unicode="&#xe90c;" glyph-name="chevron-up" d="M795.108 212.97c-22.389-22.901-53.558-24.699-80.928 0l-200.678 192.41-200.678-192.41c-27.371-24.699-58.59-22.901-80.826 0-22.389 22.85-20.95 61.466 0 82.931 20.847 21.465 241.089 231.179 241.089 231.179 11.143 11.451 25.777 17.203 40.411 17.203s29.271-5.752 40.516-17.203c0 0 220.139-209.715 241.089-231.179 21.002-21.465 22.389-60.081 0-82.931z" />
<glyph unicode="&#xe90d;" glyph-name="arrow-right" d="M39.669 332.462c0-13.255 3.788-26.059 11.361-34.438 7.637-8.504 17.363-12.805 29.205-12.805h770.319l-172.248-192.788c-20.316-20.764-20.796-41.883-1.187-63.514 19.321-21.727 38.159-21.279 56.838 1.283l243.175 271.162c4.943 3.724 8.376 8.44 10.142 14.122 1.638 5.615 2.47 11.329 2.47 16.979 0 5.615-0.835 11.329-2.569 16.914-1.702 5.65-4.911 10.334-10.174 14.122l-243.047 271.13c-18.614 22.562-37.647 23.141-56.903 1.507-19.481-21.631-19.001-42.878 1.187-63.578l172.248-191.953h-770.319c-11.844 0-21.471-4.268-29.172-12.805-7.541-8.504-11.297-22.114-11.329-35.335z" />
<glyph unicode="&#xe90e;" glyph-name="star-half" horiz-adv-x="1084" d="M763.944 234.202l157.107 152.828-257.974 37.901-18.34 36.679-97.199 196.843v-588.694l36.067-18.95 194.397-102.7-36.679 217.017-7.335 40.346 29.954 28.732zM1040.257 394.366l-221.906-216.404 52.572-305.656c2.038-13.449 0.816-23.942-3.669-31.483s-11.411-11.309-20.784-11.309c-6.929 0-15.080 2.444-24.453 7.335l-274.48 144.271-274.48-144.271c-9.373-4.891-17.524-7.335-24.453-7.335-9.373 0-16.302 3.771-20.784 11.309s-5.707 18.035-3.669 31.483l52.572 305.656-222.518 216.404c-13.042 13.042-17.727 25.167-14.061 36.373s14.67 18.238 33.010 21.092l306.879 44.626 137.545 278.147c8.151 16.708 18.136 25.062 29.954 25.062 11.411 0 21.396-8.354 29.954-25.062l137.545-278.147 306.879-44.626c18.34-2.854 29.344-9.884 33.010-21.092s-1.222-23.332-14.671-36.373z" />
<glyph unicode="&#xe90f;" glyph-name="star-empty" horiz-adv-x="1084" d="M728.496 205.47l187.061 181.56-257.974 37.901-115.539 233.522-115.539-233.522-257.974-37.901 187.061-181.56-44.626-257.363 231.076 121.652 230.465-121.652-44.015 257.363zM1050.658 423.709c0-8.967-5.297-18.746-15.895-29.344l-221.906-216.404 52.572-305.656c0.406-2.853 0.612-6.929 0.612-12.226 0-20.378-8.354-30.566-25.063-30.566-7.745 0-15.895 2.444-24.453 7.335l-274.48 144.271-274.48-144.271c-8.967-4.891-17.118-7.335-24.453-7.335-8.557 0-14.978 2.955-19.257 8.865s-6.418 13.144-6.418 21.701c0 2.444 0.406 6.52 1.222 12.226l52.572 305.656-222.518 216.404c-10.189 11.005-15.283 20.784-15.283 29.344 0 15.080 11.411 24.453 34.232 28.119l306.879 44.626 137.545 278.147c7.745 16.708 17.727 25.062 29.954 25.062s22.212-8.354 29.954-25.062l137.545-278.147 306.879-44.626c22.822-3.669 34.232-13.042 34.232-28.119z" />
<glyph unicode="&#xe910;" glyph-name="star-full" d="M1027.243 423.709c0-8.967-5.297-18.746-15.895-29.344l-221.906-216.404 52.572-305.656c0.406-2.853 0.612-6.929 0.612-12.226 0-8.557-2.139-15.791-6.418-21.701s-10.493-8.865-18.645-8.865c-7.745 0-15.895 2.444-24.453 7.335l-274.48 144.271-274.48-144.271c-8.967-4.891-17.118-7.335-24.453-7.335-8.557 0-14.978 2.955-19.257 8.865s-6.418 13.144-6.418 21.701c0 2.444 0.406 6.52 1.222 12.226l52.572 305.656-222.518 216.404c-10.189 11.005-15.283 20.784-15.283 29.344 0 15.080 11.411 24.453 34.232 28.119l306.879 44.626 137.545 278.147c7.745 16.708 17.727 25.062 29.954 25.062s22.212-8.354 29.954-25.062l137.545-278.147 306.879-44.626c22.822-3.669 34.232-13.042 34.232-28.119z" />
<glyph unicode="&#xe911;" glyph-name="rss-square" horiz-adv-x="881" d="M293.43 126.143c0 40.691-32.667 73.358-73.358 73.358s-73.358-32.667-73.358-73.358 32.667-73.358 73.358-73.358 73.358 32.667 73.358 73.358zM494.591 72.271c-9.743 177.662-150.727 318.647-328.39 328.39-5.158 0.574-10.316-1.72-13.753-5.158s-5.732-8.024-5.732-13.182v-73.358c0-9.743 7.45-17.765 17.194-18.34 117.488-8.595 212.050-103.16 220.645-220.645 0.574-9.743 8.595-17.194 18.34-17.194h73.358c5.158 0 9.743 2.292 13.182 5.732s5.732 8.595 5.158 13.753zM714.663 71.698c-9.743 298.015-251.021 539.293-549.036 549.036-5.732 0.574-9.743-1.146-13.182-5.158-3.438-3.438-5.732-8.024-5.732-13.182v-73.358c0-9.743 8.024-17.765 17.765-18.34 237.839-8.595 431.549-202.306 440.145-440.145 0.574-9.743 8.595-17.765 18.34-17.765h73.358c5.158 0 9.743 2.292 13.182 5.732 4.012 3.438 5.732 8.024 5.158 13.182zM880.291 621.307v-550.181c0-91.124-73.93-165.054-165.054-165.054h-550.181c-91.124 0-165.054 73.93-165.054 165.054v550.181c0 91.124 73.93 165.054 165.054 165.054h550.181c91.124 0 165.054-73.93 165.054-165.054z" />
<glyph unicode="&#xe912;" glyph-name="youtube-play" d="M407.479 213.256l277.383 143.277-277.383 144.995v-288.273zM513.502 707.273c216.062 0 359.338-10.316 359.338-10.316 20.060-2.292 64.189-2.292 103.16-43.556 0 0 31.522-30.947 40.691-102.013 10.89-83.1 10.316-166.2 10.316-166.2v-77.942s0.574-83.1-10.316-166.2c-9.17-70.493-40.691-102.013-40.691-102.013-38.971-40.691-83.1-40.691-103.16-42.983 0 0-143.277-10.89-359.338-10.89v0c-267.068 2.292-349.022 10.316-349.022 10.316-22.923 4.012-74.505 2.866-113.476 43.556 0 0-31.522 31.522-40.691 102.013-10.89 83.1-10.316 166.2-10.316 166.2v77.942s-0.574 83.1 10.316 166.2c9.17 71.064 40.691 102.013 40.691 102.013 38.971 41.263 83.1 41.263 103.16 43.556 0 0 143.277 10.316 359.338 10.316v0z" />
<glyph unicode="&#xe913;" glyph-name="play" horiz-adv-x="696" d="M14.301-163.516l660.097 519.248-660.097 466.539 221.692-468.636z" />
<glyph unicode="&#xe914;" glyph-name="nav-chevron-left" horiz-adv-x="596" d="M595.129-163.576l-580.696 529.974 580.696 486.245-348.417-493.592z" />
<glyph unicode="&#xe915;" glyph-name="pin" horiz-adv-x="659" d="M329.465 857.994c-45.473 0-88.157-8.343-128.054-25.030s-74.859-39.422-104.888-68.209c-30.029-28.785-53.623-62.784-70.783-102s-25.739-80.932-25.739-125.153c0-75.926 17.16-155.398 51.479-238.416s72.070-158.943 113.254-227.778c41.183-68.834 78.934-125.778 113.254-170.834s51.479-67.582 51.479-67.582c0 0 17.16 22.527 51.479 67.582s72.070 102 113.254 170.834c41.183 68.834 78.934 144.759 113.254 227.778s51.479 162.49 51.479 238.416c0 44.221-8.579 85.938-25.739 125.153s-40.754 73.214-70.783 102c-30.029 28.785-64.991 51.521-104.888 68.209s-82.581 25.030-128.054 25.030zM329.465 361.138c-48.905 0-90.732 16.895-125.48 50.686s-52.122 74.466-52.122 122.024c0 48.392 17.374 89.484 52.122 123.275s76.575 50.686 125.48 50.686c48.905 0 90.732-16.895 125.48-50.686s52.122-74.883 52.122-123.275c0-47.558-17.374-88.232-52.122-122.024s-76.575-50.686-125.48-50.686z" />
<glyph unicode="&#xe916;" glyph-name="pencil" d="M864.845 890.025c88.45 0 160.156-71.704 160.156-160.156 0-36.055-11.922-69.326-32.031-96.094l-64.063-64.063-224.219 224.219 64.063 64.063c26.768 20.11 60.037 32.031 96.094 32.031zM64.063 153.306l-64.063-288.282 288.282 64.063 592.579 592.579-224.219 224.219-592.579-592.579zM716.277 526.092l-448.438-448.438-55.21 55.21 448.438 448.438 55.21-55.21z" />
<glyph unicode="&#xe953;" glyph-name="calendar" d="M320.313 505.65h128.125v-128.125h-128.125zM512.5 505.65h128.125v-128.125h-128.125zM704.688 505.65h128.125v-128.125h-128.125zM128.125 121.275h128.125v-128.125h-128.125zM320.313 121.275h128.125v-128.125h-128.125zM512.5 121.275h128.125v-128.125h-128.125zM320.313 313.462h128.125v-128.125h-128.125zM512.5 313.462h128.125v-128.125h-128.125zM704.688 313.462h128.125v-128.125h-128.125zM128.125 313.462h128.125v-128.125h-128.125zM832.813 890.025v-64.063h-128.125v64.063h-448.438v-64.063h-128.125v64.063h-128.125v-1025.001h960.938v1025.001h-128.125zM896.876-70.913h-832.813v704.688h832.813v-704.688z" />
<glyph unicode="&#xeac6;" glyph-name="reddit" d="M256.5 242.793c0 35.416 28.71 64.126 64.126 64.126s64.126-28.71 64.126-64.126c0-35.416-28.71-64.126-64.126-64.126s-64.126 28.71-64.126 64.126zM641.252 242.793c0 35.416 28.71 64.126 64.126 64.126s64.126-28.71 64.126-64.126c0-35.416-28.71-64.126-64.126-64.126s-64.126 28.71-64.126 64.126zM644.37 105.748c16.514 13.012 40.455 10.174 53.468-6.344s10.172-40.457-6.346-53.47c-45.986-36.228-116.048-59.64-178.49-59.64-62.444 0-132.506 23.412-178.492 59.638-16.518 13.016-19.358 36.954-6.344 53.472 13.016 16.514 36.954 19.356 53.47 6.344 26.474-20.858 78.876-43.306 131.366-43.306s104.892 22.448 131.368 43.306zM1026.003 371.044c0 70.83-57.42 128.25-128.25 128.25-48.21 0-90.168-26.622-112.070-65.948-65.92 36.064-146.238 59.362-233.736 64.734l76.532 171.862 146.48-42.282c13.178-37.416 48.814-64.24 90.734-64.24 53.124 0 96.188 43.064 96.188 96.188s-43.064 96.188-96.188 96.188c-36.632 0-68.476-20.482-84.72-50.612l-163.224 47.116c-18.26 5.268-37.612-3.73-45.34-21.094l-103.973-233.482c-85.304-6.008-163.582-29.078-228.082-64.362-21.906 39.326-63.89 65.932-112.1 65.932-70.83 0-128.25-57.42-128.25-128.25 0-52.414 31.464-97.444 76.522-117.331-8.086-24.075-12.396-49.2-12.396-75.044 0-177.076 200.968-320.626 448.876-320.626 247.906 0 448.876 143.55 448.876 320.626 0 25.842-4.308 50.962-12.392 75.032 45.058 19.888 76.518 64.928 76.518 117.343zM865.69 695.678c19.92 0 36.070-16.15 36.070-36.070s-16.15-36.070-36.070-36.070-36.070 16.15-36.070 36.070 16.15 36.070 36.070 36.070zM64.126 371.044c0 35.359 28.766 64.126 64.126 64.126 25.558 0 47.666-15.034 57.96-36.718-33.514-25.416-61.286-54.732-81.826-86.908-23.57 9.488-40.258 32.576-40.258 59.5zM513.001-65.809c-205.852 0-372.728 109.456-372.728 244.478s166.876 244.478 372.728 244.478c205.852 0 372.728-109.456 372.728-244.478s-166.876-244.478-372.728-244.478zM921.619 311.543c-20.54 32.174-48.312 61.492-81.826 86.908 10.296 21.684 32.402 36.718 57.96 36.718 35.359 0 64.126-28.766 64.126-64.126 0-26.924-16.688-50.012-40.258-59.5z" />
<glyph unicode="&#xf099;" glyph-name="twitter" horiz-adv-x="953" d="M928.414 611.808q-37.999-55.458-92.43-95.511 0-8.216 0-23.621 0-74.971-21.567-148.915t-65.728-142.753-105.781-120.159-147.888-84.214-185.888-30.81q-155.077 0-283.454 83.187 19.513-2.054 44.161-2.054 129.402 0 230.049 79.079-60.593 1.027-107.835 36.972t-65.728 91.403q19.513-3.081 34.918-3.081 24.648 0 49.296 6.162-64.701 13.351-106.808 63.674t-42.107 118.105v2.054q39.026-21.567 84.214-23.621-37.999 25.675-60.593 65.728t-22.594 88.322q0 50.323 25.675 93.457 69.836-85.241 168.428-136.591t213.617-56.485q-5.135 21.567-5.135 42.107 0 77.025 54.431 130.429t130.429 54.431q81.133 0 135.564-58.539 62.647 12.324 118.105 45.188-21.567-65.728-82.16-102.7 53.404 6.162 106.808 28.756z" />
<glyph unicode="&#xf09a;" glyph-name="facebook" horiz-adv-x="588" d="M549.449 838.775v-150.969h-89.349q-49.296 0-66.755-20.54t-17.459-61.62v-108.862h168.428l-22.594-169.455h-145.834v-435.45h-175.618v435.45h-145.834v169.455h145.834v125.294q0 106.808 59.566 165.347t159.185 58.539q84.214 0 130.429-7.189z" />
<glyph unicode="&#xf0e1;" glyph-name="linkedin" horiz-adv-x="881" d="M200.266 487.54v-567.935h-188.969v567.935h188.969zM212.59 663.158q0-42.107-29.783-69.836t-77.025-27.729h-1.027q-47.242 0-75.998 27.729t-28.756 69.836 29.783 69.836 77.025 27.729 75.998-27.729 29.783-69.836zM880.145 245.167v-325.561h-187.942v303.994q0 60.593-23.621 94.484t-72.917 33.891q-35.945 0-59.566-19.513t-36.972-49.296q-6.162-17.459-6.162-46.215v-317.345h-188.969q1.027 229.022 1.027 370.749t0 169.455l-1.027 27.729h188.969v-82.16h-1.027q11.297 18.486 23.621 31.837t31.837 29.783 50.323 24.648 65.728 9.243q97.565 0 157.131-64.701t59.566-191.023z" />
<glyph unicode="&#xf167;" glyph-name="youtube" horiz-adv-x="881" d="M556.638 133.222v-121.186q0-37.999-22.594-37.999-13.351 0-25.675 12.324v172.536q12.324 12.324 25.675 12.324 22.594 0 22.594-37.999zM750.741 132.195v-25.675h-52.377v25.675q0 39.026 25.675 39.026t26.702-39.026zM196.158 257.491h61.62v53.404h-178.699v-53.404h60.593v-326.588h56.485v326.588zM361.506-69.097h51.35v283.454h-51.35v-216.698q-17.459-23.621-32.864-23.621-10.27 0-11.297 11.297-1.027 2.054-1.027 20.54v208.482h-51.35v-223.887q0-28.756 5.135-42.107 7.189-21.567 32.864-21.567 27.729 0 58.539 34.918v-30.81zM607.988 16.144v112.97q0 42.107-5.135 56.485-10.27 31.837-41.080 31.837-28.756 0-53.404-30.81v124.267h-51.35v-379.992h51.35v27.729q25.675-31.837 53.404-31.837 30.81 0 41.080 31.837 5.135 15.405 5.135 57.512zM801.065 22.306v7.189h-52.377q0-29.783-1.027-34.918-4.108-20.54-22.594-20.54-26.702 0-26.702 39.026v50.323h102.7v58.539q0 45.188-15.405 66.755-22.594 28.756-60.593 28.756-39.026 0-61.62-28.756-15.405-21.567-15.405-66.755v-98.592q0-45.188 16.432-66.755 22.594-29.783 61.62-29.783 41.080 0 61.62 30.81 10.27 15.405 12.324 30.81 1.027 5.135 1.027 33.891zM452.909 545.053v120.159q0 40.053-24.648 40.053t-24.648-40.053v-120.159q0-40.053 24.648-40.053t24.648 40.053zM864.739 114.736q0-134.537-14.378-200.266-8.216-33.891-33.891-57.512t-58.539-25.675q-104.754-12.324-317.345-12.324t-318.372 12.324q-32.864 3.081-58.539 25.675t-32.864 57.512q-15.405 63.674-15.405 200.266 0 134.537 15.405 200.266 7.189 33.891 32.864 57.512t58.539 26.702q105.781 11.297 318.372 11.297t317.345-11.297q33.891-4.108 59.566-26.702t32.864-57.512q14.378-63.674 14.378-200.266zM292.697 845.964h58.539l-68.809-229.022v-155.077h-57.512v155.077q-8.216 43.134-34.918 122.213-21.567 58.539-37.999 106.808h61.62l40.053-150.969zM505.286 654.942v-99.619q0-47.242-16.432-67.782-21.567-29.783-60.593-29.783-37.999 0-60.593 29.783-15.405 21.567-15.405 67.782v99.619q0 46.215 15.405 67.782 22.594 28.756 60.593 28.756 39.026 0 60.593-28.756 16.432-21.567 16.432-67.782zM697.337 748.399v-286.535h-52.377v31.837q-30.81-35.945-59.566-35.945-25.675 0-33.891 21.567-4.108 13.351-4.108 43.134v225.941h52.377v-210.536q0-19.513 0-20.54 2.054-12.324 12.324-12.324 15.405 0 32.864 24.648v218.752h52.377z" />
<glyph unicode="&#xf173;" glyph-name="tumblr" horiz-adv-x="588" d="M541.233 83.926l45.188-135.564q-12.324-19.513-62.647-37.999t-101.673-18.486q-59.566-1.027-109.889 15.405t-81.133 42.107-54.431 60.593-31.837 68.809-9.243 67.782v312.21h-96.538v123.24q41.080 14.378 73.944 40.053t52.377 51.35 32.864 58.539 19.513 56.485 8.216 50.323q1.027 3.081 3.081 5.135t4.108 2.054h139.672v-243.4h191.023v-143.78h-191.023v-296.805q0-17.459 3.081-31.837t13.351-30.81 28.756-23.621 46.215-8.216q45.188 1.027 77.025 16.432z" />
<glyph unicode="&#xf230;" glyph-name="facebook-official" horiz-adv-x="881" d="M831.875 773.047q19.513 0 33.891-14.378t14.378-34.918v-782.578q0-20.54-14.378-34.918t-33.891-14.378h-223.887v341.993h113.997l16.432 132.483h-130.429v85.241q0 31.837 13.351 47.242t52.377 16.432l69.836 1.027v118.105q-35.945 5.135-102.7 5.135-77.025 0-124.267-45.188t-46.215-130.429v-97.565h-115.024v-132.483h115.024v-341.993h-422.099q-19.513 0-33.891 14.378t-14.378 34.918v782.578q0 20.54 14.378 34.918t33.891 14.378h783.605z" />
<glyph unicode="&#xf231;" glyph-name="pinterest" horiz-adv-x="734" d="M0 503.972q0 61.62 21.567 116.051t59.566 95.511 87.295 70.863 105.781 45.188 116.051 14.378q90.376 0 168.428-37.999t126.321-110.916 48.269-164.32q0-55.458-10.27-107.835t-34.918-101.673-57.512-85.241-82.16-59.566-108.862-21.567q-39.026 0-77.025 18.486t-55.458 50.323q-5.135-22.594-15.405-64.701t-14.378-54.431-11.297-41.080-15.405-40.053-17.459-35.945-26.702-45.188-35.945-49.296l-7.189-3.081-5.135 6.162q-9.243 90.376-9.243 107.835 0 52.377 12.324 118.105t37.999 165.347 29.783 116.051q-18.486 36.972-18.486 96.538 0 48.269 29.783 89.349t75.998 42.107q34.918 0 54.431-23.621t19.513-58.539q0-37.999-24.648-108.862t-25.675-107.835q0-35.945 25.675-59.566t62.647-23.621q31.837 0 58.539 14.378t45.188 39.026 31.837 54.431 21.567 62.647 11.297 63.674 4.108 57.512q0 98.592-62.647 154.050t-164.32 55.458q-113.997 0-191.023-73.944t-77.025-187.942q0-25.675 7.189-49.296t15.405-36.972 15.405-26.702 7.189-17.459q0-15.405-8.216-41.080t-21.567-25.675q-1.027 0-9.243 1.027-29.783 9.243-52.377 31.837t-34.918 54.431-18.486 61.62-6.162 61.62z" />
<glyph unicode="&#xf30c;" glyph-name="linkedin-squared" horiz-adv-x="881" d="M135.564 35.657h132.483v397.451h-132.483v-397.451zM277.292 556.35q-1.027 29.783-21.567 49.296t-52.377 19.513-54.431-19.513-21.567-49.296q0-29.783 20.54-49.296t53.404-19.513v0q33.891 0 54.431 19.513t21.567 49.296zM612.096 35.657h132.483v227.995q0 88.322-42.107 133.51t-109.889 45.188q-78.052 0-120.159-66.755h1.027v57.512h-132.483q2.054-37.999 0-397.451h132.483v222.86q0 21.567 4.108 31.837 8.216 19.513 25.675 33.891t42.107 14.378q66.755 0 66.755-90.376v-212.59zM880.145 607.7v-550.476q0-67.782-48.269-116.051t-117.078-49.296h-549.449q-68.809 0-117.078 49.296t-48.269 116.051v550.476q0 67.782 48.269 116.051t117.078 49.296h549.449q68.809 0 117.078-49.296t48.269-116.051z" />
</font>
</defs>
</svg>
